Today is a free download without charge Download

Лос-Анджелесская история / L.A. Story (Мик Джексон / Mick Jackson) [1991, США, комедия, мелодрама, BDRip 720p] MVO + AVO (Михалев) + AVO (Завгородний) + Original Eng + Sub Rus, Eng

Reply to topic
 
Author
Message

Omen ®

Longevity: 8 years 5 months

Posts: 181087

Торрент-статистика

Post 13-Feb-2013 06:20

[Quote]

Лос-Анджелесская история / L.A. Story
Страна: США
Жанр: комедия, мелодрама
Год выпуска: 1991
Продолжительность: 01:31:22
Перевод: Профессиональный (многоголосый закадровый)
Перевод 2: Авторский (одноголосый закадровый) Михалев
Перевод 3: Авторский (одноголосый закадровый) Завгородний
Cубтитры: русские, английские
Оригинальная аудиодорожка: английский
Режиссер: Мик Джексон / Mick Jackson
В ролях: Стив Мартин, Виктория Теннант, Ричард Э. Грант, Мэрилу Хеннер, Сара Джессика Паркер, Сьюзен Форристал, Кевин Поллак, Сэм МакМюррей, Патрик Стюарт, Эндрю Амадор
Описание: «Человеку настроения» — синоптику Харрису — надоела работа на телевидении, сумасшедшие ритмы Лос-Анджелеса и вообще всё на свете. Единственная радость — романтическая встреча с английской журналисткой, которая возвращает ему любовь к жизнерадостному хаосу великого города.
Сэмпл: http://yadi.sk/d/oQwfdUoy2_0SO
Тип релиза: BDRip 720p
Контейнер: MKV
Видео: AVC, 1280x696, 1.85:1, 4817 kbps, 25.000 fps
Аудио: RUS, AC3, 5.1, 48 kHz, 16 bit, 448 kbps
Аудио 2: RUS, AC3, 2.0, 48 kHz, 16 bit, 192 kbps
Аудио 3: RUS, AC3, 5.1, 48 kHz, 16 bit, 448 kbps
Аудио 4: ENG, AC3, 5.1, 48 kHz, 16 bit, 448 kbps
Формат субтитров: softsub (SRT)

MediaInfo

General
Unique ID : 251971642206532568666341384638187587729 (0xBD8FF91C2D57EE959C20ADD43C1A4891)
Complete name : Лос-Анджелесская история [1991] 720p.mkv
Format : Matroska
Format version : Version 4 / Version 2
File size : 4.06 GiB
Duration : 1h 31mn
Overall bit rate : 6 355 Kbps
Encoded date : UTC 2013-02-13 00:34:31
Writing application : mkvmerge v6.0.0 ('Coming Up For Air') built on Jan 20 2013 09:52:00
Writing library : libebml v1.3.0 + libmatroska v1.4.0
Video
ID : 1
Format : AVC
Format/Info : Advanced Video Codec
Format profile : [email protected]
Format settings, CABAC : Yes
Format settings, ReFrames : 5 frames
Codec ID : V_MPEG4/ISO/AVC
Duration : 1h 31mn
Bit rate : 4 817 Kbps
Width : 1 280 pixels
Height : 696 pixels
Display aspect ratio : 1.85:1
Frame rate mode : Constant
Frame rate : 25.000 fps
Color space : YUV
Chroma subsampling : 4:2:0
Bit depth : 8 bits
Scan type : Progressive
Bits/(Pixel*Frame) : 0.216
Stream size : 2.99 GiB (74%)
Writing library : x264 core 125 r2200 999b753
Encoding settings : cabac=1 / ref=5 / deblock=1:0:0 / analyse=0x3:0x133 / me=umh / subme=7 / psy=1 / psy_rd=1.00:0.00 / mixed_ref=1 / me_range=16 / chroma_me=1 / trellis=1 / 8x8dct=1 / cqm=0 / deadzone=21,11 / fast_pskip=0 / chroma_qp_offset=-2 / threads=6 / lookahead_threads=1 / sliced_threads=0 / nr=0 / decimate=1 / interlaced=0 / bluray_compat=0 / constrained_intra=0 / bframes=3 / b_pyramid=2 / b_adapt=2 / b_bias=0 / direct=3 / weightb=1 / open_gop=0 / weightp=2 / keyint=250 / keyint_min=25 / scenecut=40 / intra_refresh=0 / rc_lookahead=50 / rc=2pass / mbtree=1 / bitrate=4817 / ratetol=1.0 / qcomp=0.60 / qpmin=0 / qpmax=69 / qpstep=4 / cplxblur=20.0 / qblur=0.5 / ip_ratio=1.40 / aq=1:1.00
Language : English
Default : Yes
Forced : No
Audio #1
ID : 2
Format : AC-3
Format/Info : Audio Coding 3
Mode extension : CM (complete main)
Format settings, Endianness : Big
Codec ID : A_AC3
Duration : 1h 31mn
Bit rate mode : Constant
Bit rate : 448 Kbps
Channel(s) : 6 channels
Channel positions : Front: L C R, Side: L R, LFE
Sampling rate : 48.0 KHz
Bit depth : 16 bits
Compression mode : Lossy
Stream size : 293 MiB (7%)
Title : MVO
Language : Russian
Default : Yes
Forced : No
Audio #2
ID : 3
Format : AC-3
Format/Info : Audio Coding 3
Mode extension : CM (complete main)
Format settings, Endianness : Big
Codec ID : A_AC3
Duration : 1h 31mn
Bit rate mode : Constant
Bit rate : 192 Kbps
Channel(s) : 2 channels
Channel positions : Front: L R
Sampling rate : 48.0 KHz
Bit depth : 16 bits
Compression mode : Lossy
Stream size : 125 MiB (3%)
Title : AVO (Михалев)
Language : Russian
Default : No
Forced : No
Audio #3
ID : 4
Format : AC-3
Format/Info : Audio Coding 3
Mode extension : CM (complete main)
Format settings, Endianness : Big
Codec ID : A_AC3
Duration : 1h 31mn
Bit rate mode : Constant
Bit rate : 448 Kbps
Channel(s) : 6 channels
Channel positions : Front: L C R, Side: L R, LFE
Sampling rate : 48.0 KHz
Bit depth : 16 bits
Compression mode : Lossy
Stream size : 293 MiB (7%)
Title : AVO (Завгородний)
Language : Russian
Default : No
Forced : No
Audio #4
ID : 5
Format : AC-3
Format/Info : Audio Coding 3
Mode extension : CM (complete main)
Format settings, Endianness : Big
Codec ID : A_AC3
Duration : 1h 31mn
Bit rate mode : Constant
Bit rate : 448 Kbps
Channel(s) : 6 channels
Channel positions : Front: L C R, Side: L R, LFE
Sampling rate : 48.0 KHz
Bit depth : 16 bits
Compression mode : Lossy
Stream size : 293 MiB (7%)
Title : ENG
Language : English
Default : No
Forced : No
Text #1
ID : 6
Format : UTF-8
Codec ID : S_TEXT/UTF8
Codec ID/Info : UTF-8 Plain Text
Language : Russian
Default : No
Forced : No
Text #2
ID : 7
Format : UTF-8
Codec ID : S_TEXT/UTF8
Codec ID/Info : UTF-8 Plain Text
Language : English
Default : No
Forced : No
Menu
00:00:00.000 : :
00:10:44.000 : :
00:19:56.000 : :
00:29:49.000 : :
00:39:32.000 : :
00:46:34.000 : :
00:50:27.000 : :
01:00:41.000 : :
01:10:00.000 : :
01:16:00.000 : :
01:20:34.000 : :
01:27:49.000 : :

Скриншот c названием фильма

Other forum [Profile] [PM]
Display posts from previous:    
Reply to topic

The time now is: Today 10:57

All times are GMT + 3 Hours



You cannot post new topics in this forum
You cannot reply to topics in this forum
You cannot edit your posts in this forum
You cannot delete your posts in this forum
You cannot vote in polls in this forum
You cannot attach files in this forum
You cannot download files in this forum