Today is a free download without charge Download

Викинги / The Vikings (Ричард Флайшер / Richard Fleischer) [1958, США, боевик, приключения, исторический, WEB-DL 720p] Dub + DVO + Sub Eng, Rus + Original Eng

Reply to topic
 
Author
Message

Omen ®

Longevity: 8 years 5 months

Posts: 181087

Торрент-статистика

Post 12-Feb-2013 22:12

[Quote]

Викинги / The Vikings
Страна: США
Жанр: боевик, приключения, исторический
Год выпуска: 1958
Продолжительность: 01:56:00-Перевод 1: Профессиональный (дублированный) Советский дубляж
Перевод 2: Профессиональный (двухголосый закадровый) 5 Канал
Cубтитры: английские, русские
Оригинальная аудиодорожка: английский-Режиссер: Ричард Флайшер / Richard Fleischer-В ролях: Кирк Дуглас, Тони Кертис, Эрнест Боргнайн, Джанет Ли, Джеймс Дональд, Александр Нокс , Максин Одли, Фрэнк Тринг, Эйлин Вэй, Эдрик Коннорс-Описание:
Тысяча лет назад скандинавские викинги во главе с королем Рагнаром высадились на побережье Англии в надежде захватить вожделенные земли. Движимые жаждой наживы, безжалостные воины опустошали Британские острова, сея смерть и разрушение.
Эйнар и Эрик были сводными братьями. Первый — сын короля викингов Рагнара, бесстрашный и непобедимый воин, которому не было равных в боях. Второй — его слуга и раб, ничего не знающий о своих родителях. Братья не подозревали о своем кровном родстве и с детства ненавидели друг друга. Многолетняя вражда достигла критической точки, когда оба влюбились в Уэльсскую принцессу Моргану…-Сэмпл: Скачать-Тип релиза: WEB-DL 720p
Контейнер: MKV-Видео: 1280x544 (2.35:1); 3893 Kbps; 23.976 fps; 0.233 bpp
Аудио 1: Russian; AC3; 48.0 KHz; 2ch; 192 Kbps
Аудио 2: Russian; AC3; 48.0 KHz; 2ch; 192 Kbps
Аудио 3: English; AAC; 48.0 KHz; 2ch; 160 Kbps
Формат субтитров: softsub (SRT)

MediaInfo

Format : Matroska
Format version : Version 2
File size : 3.65 GiB
Duration : 1h 56mn
Overall bit rate : 4 502 Kbps
Encoded date : UTC 2013-02-12 16:11:06
Writing application : mkvmerge v5.0.1 ('Es ist Sommer') built on Oct 9 2011 11:55:43
Writing library : libebml v1.2.2 + libmatroska v1.3.0
Video
ID : 1
Format : AVC
Format/Info : Advanced Video Codec
Format profile : [email protected]
Format settings, CABAC : No
Format settings, ReFrames : 2 frames
Codec ID : V_MPEG4/ISO/AVC
Duration : 1h 56mn
Width : 1 280 pixels
Height : 544 pixels
Display aspect ratio : 2.35:1
Frame rate mode : Constant
Frame rate : 23.976 fps
Color space : YUV
Chroma subsampling : 4:2:0
Bit depth : 8 bits
Scan type : Progressive
Language : English
Default : Yes
Forced : No
Color primaries : BT.709
Transfer characteristics : BT.709
Matrix coefficients : BT.709
Audio #1
ID : 2
Format : AC-3
Format/Info : Audio Coding 3
Mode extension : CM (complete main)
Format settings, Endianness : Big
Codec ID : A_AC3
Duration : 1h 56mn
Bit rate mode : Constant
Bit rate : 192 Kbps
Channel(s) : 2 channels
Channel positions : Front: L R
Sampling rate : 48.0 KHz
Bit depth : 16 bits
Compression mode : Lossy
Stream size : 159 MiB (4%)
Title : Dub Советский
Language : Russian
Default : Yes
Forced : No
Audio #2
ID : 3
Format : AC-3
Format/Info : Audio Coding 3
Mode extension : CM (complete main)
Format settings, Endianness : Big
Codec ID : A_AC3
Duration : 1h 56mn
Bit rate mode : Constant
Bit rate : 192 Kbps
Channel(s) : 2 channels
Channel positions : Front: L R
Sampling rate : 48.0 KHz
Bit depth : 16 bits
Compression mode : Lossy
Stream size : 159 MiB (4%)
Title : DVO 5 Канал
Language : Russian
Default : No
Forced : No
Audio #3
ID : 4
Format : AAC
Format/Info : Advanced Audio Codec
Format profile : LC
Codec ID : A_AAC
Duration : 1h 56mn
Channel(s) : 2 channels
Channel positions : Front: L R
Sampling rate : 48.0 KHz
Compression mode : Lossy
Language : English
Default : No
Forced : No
Text #1
ID : 5
Format : UTF-8
Codec ID : S_TEXT/UTF8
Codec ID/Info : UTF-8 Plain Text
Language : Russian
Default : No
Forced : No
Text #2
ID : 6
Format : UTF-8
Codec ID : S_TEXT/UTF8
Codec ID/Info : UTF-8 Plain Text
Language : English
Default : No
Forced : No
Menu
00:00:00.000 : en:Main Title/Bad Omen
00:07:11.000 : en:Bride, Tyrant, Traitor
00:11:17.000 : en:No Finer Son
00:20:42.000 : en:Viking Justice
00:29:33.000 : en:Odin's Daughters Answer
00:39:36.000 : en:Stealing A Princess
00:44:47.000 : en:Einar's Homecoming
00:50:05.000 : en:Like Father, Like Son
00:54:43.000 : en:The Escape
01:05:27.000 : en:Flesh And Souls
01:09:35.000 : en:Honor Among Vikings
01:16:34.000 : en:Avenging Ragnar
01:24:08.000 : en:The Vikings Are Coming!
01:33:23.000 : en:The Battle
01:43:21.000 : en:Brothers In Arms
01:54:24.000 : en:End Credits

Скриншоты

Other forum [Profile] [PM]
Display posts from previous:    
Reply to topic

The time now is: Today 10:16

All times are GMT + 3 Hours



You cannot post new topics in this forum
You cannot reply to topics in this forum
You cannot edit your posts in this forum
You cannot delete your posts in this forum
You cannot vote in polls in this forum
You cannot attach files in this forum
You cannot download files in this forum