Today is a free download without charge Download

АлисА - Ангел (2013). Неофициальный live-клип (HOLSTyak-video) [2013, Rock, Metal, HDCamRip, 1080]

Reply to topic
 
Author
Message

Omen ®

Longevity: 8 years 4 months

Posts: 181087

Торрент-статистика

Post 12-Feb-2013 22:12

[Quote]

АлисА - Ангел
Жанр: Rock, Metal
Продолжительность: 6:12
Год выпуска: 2013
Режиссёр: HOLSTyak-video
Описание: Очередной неофициальный live-клип на произведение группы АлисА из альбома "Саботаж" (2012г.) от HOLSTyak-video
Предыдущую работу на песню "Черви" Вы можете посмотреть по ссылке - http://www.youtube.com/watch?v=EkYsvyZhNf4
Предпросмотр на YouTube: http://www.youtube.com/watch?v=3cYRZrr2DLs
Это видео не скачано с Ютьюба, а является исходником, заливавшимся туда!
Качество: HDCamRip
Контейнер: MP4
Видео кодек: АVC
Аудио кодек: AAC
Видео: 1920x1080, 25fps, 6171Kbps
Аудио: 48000Hz, stereo, 320Kbps

Отчёт MediaInfo / BDInfo

GeneralComplete name : E:\СЪЁМКА\АлисА - Ангел (клип)\Ангел готовый ютьюб.mp4Format : MPEG-4Format profile : Base Media / Version 2Codec ID : mp42File size : 283 MiBDuration : 6mn 12sOverall bit rate mode : VariableOverall bit rate : 6 368 KbpsEncoded date : UTC 2013-02-12 12:18:07Tagged date : UTC 2013-02-12 12:18:07
VideoID : 2Format : AVCFormat/Info : Advanced Video CodecFormat profile : [email protected] settings, CABAC : YesFormat settings, ReFrames : 2 framesFormat settings, GOP : M=2, N=13Muxing mode : Container [email protected] ID : avc1Codec ID/Info : Advanced Video CodingDuration : 6mn 12sBit rate mode : VariableBit rate : 6 171 KbpsMaximum bit rate : 22.0 MbpsWidth : 1 920 pixelsHeight : 1 080 pixelsDisplay aspect ratio : 16:9Frame rate mode : ConstantFrame rate : 25.000 fpsColor space : YUVChroma subsampling : 4:2:0Bit depth : 8 bitsScan type : ProgressiveBits/(Pixel*Frame) : 0.119Stream size : 274 MiB (97%)Language : EnglishEncoded date : UTC 2013-02-12 12:18:07Tagged date : UTC 2013-02-12 12:18:07
AudioID : 1Format : AACFormat/Info : Advanced Audio CodecFormat profile : LCCodec ID : 40Duration : 6mn 12sBit rate mode : ConstantBit rate : 192 KbpsChannel(s) : 2 channelsChannel positions : Front: L RSampling rate : 48.0 KHzCompression mode : LossyStream size : 8.53 MiB (3%)Language : EnglishEncoded date : UTC 2013-02-12 12:18:07Tagged date : UTC 2013-02-12 12:18:07

Скриншоты


-

В создании релиза принимали участие

Операторы:
Magmel666 (четырежды)
Андрей Алексеев
Алексей Моисеев
Max Ferrum
godvlad123
LyuMur
Монтаж:
Александр HOLSTyak Ефакин

-

Релизы от HOLSTyak-video на трекере

Сплин - Акустический вечер в Crocus Сity Hall (19.02.2011) MultiCam 2хDVD5(custom), CAMrip
НАШЕСТВИЕ 2011 - АлисА, Ария, Би-2, Глеб СамойлоFF & The MatriXX, Кипелов, Крематорий, КняZz, СерьГа, Смысловые галлюцинации, Сплин, Сурганова и оркестр CAMrip
Воскресенье - День крещения Руси. Поклонная гора (28.07.2011) DVD5(custom), CAMrip
ПилОт - Презентация альбома "Осень" в Москве (15.10.2011) DVD9(custom)
КняZz - Презентация альбома "Письмо из Трансильвании" в Москве (11.11.2011) DVD9(custom), CAMrip
Андрей Сапунов (Воскресенье) - выступление в магазине "Музторг" на Савёловской (Москва, 18.10.2011) DVD5(custom), CAMrip
Воскресение и Машина времени - Совместный концерт в Crocus Сity Hall (23.03.2012) 2хDVD5(custom), CAMrip
Король и Шут - 10 лет спустя... Лужники (28.04.2012) 2хDVD5(custom), CAMrip
НАШЕСТВИЕ 2012 - АлисА, КняZz, LOUNA, КИПЕЛОВ, Король и Шут, Gorky Park (Парк Горького) HDCam, CAMrip (без Кипелова), CAMrip (Кипелов), AudioRip мр3, 5хDVD5(custom)
Александр Пушной - Встреча с фан-клубом. Москва (24.08.2012) HDCamRip 720p
АлисА - Презентация альбома "20/12". Лужники (20.11.2012) MultiCamRip, MultiCamHD 1080р, DVD5(custom)
Виктор Цой 50 лет - Бутусов & Ю-Питер, Король и Шут, Noize MC, Кукрыниксы, ПилОт, Пикник, LOUNA, КняZz, Zdob si Zdoob, Виктор, Ольга Кормухина, После 11, Глобалис. Олимпийский (30.09.2012) HDCam 1080р, HDCamRip 720p, HDCamRip,
Other forum [Profile] [PM]
Display posts from previous:    
Reply to topic

The time now is: Today 22:43

All times are GMT + 3 Hours



You cannot post new topics in this forum
You cannot reply to topics in this forum
You cannot edit your posts in this forum
You cannot delete your posts in this forum
You cannot vote in polls in this forum
You cannot attach files in this forum
You cannot download files in this forum