Today is a free download without charge Download

Неудача Пуаро [5 серий] (2002) DVD9

Reply to topic
 
Author
Message

Omen ®

Longevity: 9 years 1 month

Posts: 181086

Торрент-статистика

Post 12-Feb-2013 03:20

[Quote]

- Неудача Пуаро [5 серий] (2002) DVD9 -Русское название: Неудача Пуаро
Год выпуска: 2002
Страна: Россия
Жанр: Детектив, комедия, криминал--Режиссер: Сергей Урсуляк
Актеры: Ольга Барнет (миссис Феррар), Юрий Чурсин, Елена Козелькова, Ольга Красько, Александр Лазарев мл., Сергей Маковецкий (доктор Шеппард), Светлана Немоляева (миссис Экройд), Лика Нифонтова, Елена Подкаминская, Константин Райкин (Эркюль Пуаро), Роман Романцов, Александр Сирин-Описание фильма: Экранизация романа Агаты Кристи «Убийство Роджера Экройда». В собственном кабинете убит хозяин особняка - Роджер Экройд. Расследование ведут двое - местный инспектор и бельгийский сыщик Эркюль Пуаро. Подозреваются все: племянник, домочадцы, слуги, гости. У каждого есть алиби и каждый что-то утаивает, но в то же время надеется на Пуаро и справедливый исход следствия. Все, кроме истинного убийцы. Но Пуаро не спешит, он терпеливо накапливает факты, избавляется от противоречий, освобождает каждого от обременительной тайны и остается один на один с убийцей, фактами, логикой и непростым человеческим чувством - разочарованием...- -Продолжительность: 5 x ~ 00:50:00
Перевод: Не требуется (русский)
Субтитры: Отсутствуют--Качество видео: DVD9
Видеокодек: MPEG-2
Битрейт видео: ~3 016 Kbps
Размер кадра: PAL 4:3 ([email protected])
Аудиокодек: AC3 2.0
Битрейт аудио: 192 Kbps
В папке: Обложка и блин-

DVDInfo:

Title:
Size: 6.46 Gb ( 6 778 958 KBytes ) - DVD-9
Enabled regions: 1, 2, 3, 4, 5, 6, 7, 8
VTS_01 :
Play Length: 00:00:05
Video: PAL 4:3 (720x576) VBR
VTS_02 :
Play Length: 00:00:11
Video: PAL 4:3 (720x576) VBR
Audio:
Not specified (Dolby AC3, 6 ch)
VTS_03 :
Play Length: 00:02:06
Video: PAL 4:3 (720x576) VBR
Audio:
Not specified (Dolby AC3, 2 ch)
Subtitles:
Not specified
VTS_04 :
Play Length: 00:00:18
Video: PAL 4:3 (720x576) VBR
Audio:
Not specified (Dolby AC3, 2 ch)
VTS_05 :
Play Length: 00:48:56
Video: PAL 4:3 (720x576) VBR
Audio:
Russian (Dolby AC3, 2 ch)
VTS_06 :
Play Length: 00:49:51
Video: PAL 4:3 (720x576) VBR
Audio:
Russian (Dolby AC3, 2 ch)
VTS_07 :
Play Length: 00:49:37
Video: PAL 4:3 (720x576) VBR
Audio:
Russian (Dolby AC3, 2 ch)
VTS_08 :
Play Length: 00:52:17
Video: PAL 4:3 (720x576) VBR
Audio:
Russian (Dolby AC3, 2 ch)
VTS_09 :
Play Length: 01:13:18
Video: PAL 4:3 (720x576) VBR
Audio:
Russian (Dolby AC3, 2 ch)

MediaInfo:

General
Complete name : G:\Неудача.Пуаро.2002.DVD9\Video_ts\VTS_08_1.VOB
Format : MPEG-PS
File size : 1 024 MiB
Duration : 43mn 43s
Overall bit rate mode : Variable
Overall bit rate : 3 274 Kbps
Video
ID : 224 (0xE0)
Format : MPEG Video
Format version : Version 2
Format profile : [email protected]
Format settings, BVOP : Yes
Format settings, Matrix : Custom
Duration : 43mn 43s
Bit rate mode : Variable
Bit rate : 3 016 Kbps
Maximum bit rate : 6 000 Kbps
Width : 720 pixels
Height : 576 pixels
Display aspect ratio : 4:3
Frame rate : 25.000 fps
Standard : PAL
Color space : YUV
Chroma subsampling : 4:2:0
Bit depth : 8 bits
Scan type : Interlaced
Scan order : Top Field First
Compression mode : Lossy
Bits/(Pixel*Frame) : 0.291
Stream size : 943 MiB (92%)
Audio
ID : 189 (0xBD)-128 (0x80)
Format : AC-3
Format/Info : Audio Coding 3
Mode extension : CM (complete main)
Format settings, Endianness : Big
Muxing mode : DVD-Video
Duration : 43mn 43s
Bit rate mode : Constant
Bit rate : 192 Kbps
Channel(s) : 2 channels
Channel positions : Front: L R
Sampling rate : 48.0 KHz
Bit depth : 16 bits
Compression mode : Lossy
Stream size : 60.0 MiB (6%)

Скриншоты меню:

     
-Скриншоты:
         -Время раздачи: С 09:00 до 24:00
Other forum [Profile] [PM]
Display posts from previous:    
Reply to topic

The time now is: Today 05:31

All times are GMT + 3 Hours



You cannot post new topics in this forum
You cannot reply to topics in this forum
You cannot edit your posts in this forum
You cannot delete your posts in this forum
You cannot vote in polls in this forum
You cannot attach files in this forum
You cannot download files in this forum