Today is a free download without charge Download

Зубастики / Critters (Стивен Херек / Stephen Herek) [1986, США, ужасы, фантастика, комедия, WEB-DL 720p] DVO + AVO (Гаврилов) + original (eng) + sub (rus, ukr, eng)

Reply to topic
 
Author
Message

Omen ®

Longevity: 8 years 5 months

Posts: 181087

Торрент-статистика

Post 12-Feb-2013 01:48

[Quote]

Зубастики / Critters
Год выпуска: 1986
Страна: США
Жанр: фантастика, ужасы, комедия
Продолжительность: 01:22:23
Перевод1: Профессиональный (двухголосый закадровый)(Студия Инис по заказу Союз-Видео)
Перевод2: Авторский (одноголосый закадровый)(А.Гаврилов)
Субтитры: русские, украинские, английские
Оригинальная аудиодорожка: английский
Режиссер: Стивен Херек / Stephen Herek
В ролях: Ди Уоллас-Стоун, М. Эммет Уолш, Билли Грин Баш, Скотт Кримес, Надин Ван дер Велд, Дон Кейт Оппер, Билли Зейн, Этан Филлипс, Терренс Манн, Джереми Лоуренс, Лин Шей, Майкл Ли Гогин, Арт Франкел, Дуглас Кот, Монтроз Хагинс
Описание: Они не вышли ростом, но по свирепости с ними не сравнится ни одно земное существо - это Зубастики! Мохнатые безжалостные твари с ужасающей пастью прибыли из космоса, чтобы уничтожить цивилизацию людей. И начали они с обычной сельской фермы в Канзасе, где сжирают все, что попадается им на зуб (в том числе и людей). Хорошо, что в космосе есть еще и отважные герои, которые приходят на помощь перепуганным местным жителям. Только объединенные усилия и хитроумная стратегия помогут победить прожорливых инопланетных зверушек.
Саундтрек

Качество: WEB-DL 720p(HD4FUN)
Формат: MKV
Видео кодек: H.264
Аудио кодек: AC3
Видео: 1280 x 720; 25,00 fps; 4 002 Kbps
Аудио1: Русский, AC3 5.1 448 Kbps 48,0 КГц(MVO)
Аудио2: Русский, AC3 5.1 448 Kbps 48,0 КГц(Гаврилов)
Аудио3: English, АС3 5.1 448 Kbps 48,0 КГц(Оригинал)
Субтитры: softsub (SRT)

MediaInfo

Общее
Уникальный идентификатор : 243635300547900716283480295493353399019 (0xB74A73BBBE81837A951C6A484B98E2EB)
Полное имя : D:\HDFILMS\Critters.1986.720p.WEB-DL.2xRus.Eng.mkv
Формат : Matroska
Версия формата : Version 2
Размер файла : 3,14 Гбайт
Продолжительность : 1 ч. 22 м.
Общий поток : 5454 Кбит/сек
Дата кодирования : UTC 2013-02-11 20:54:42
Программа кодирования : mkvmerge v5.3.0 ('I could have danced') built on Feb 9 2012 10:38:07
Библиотека кодирования : libebml v1.2.3 + libmatroska v1.3.0
Видео
Идентификатор : 1
Формат : AVC
Формат/Информация : Advanced Video Codec
Профиль формата : [email protected]
Параметр CABAC формата : Нет
Параметр ReFrames формата : 2 кадра
Идентификатор кодека : V_MPEG4/ISO/AVC
Продолжительность : 1 ч. 22 м.
Битрейт : 4002 Кбит/сек
Ширина : 1280 пикселей
Высота : 720 пикселей
Соотношение сторон : 16:9
Режим частоты кадров : Постоянный
Частота кадров : 25,000 кадров/сек
Цветовое пространство : YUV
Субдискретизация насыщенности : 4:2:0
Битовая глубина : 8 бит
Тип развёртки : Прогрессивная
Бит/(Пиксели*Кадры) : 0.174
Размер потока : 2,30 Гбайт (73%)
Default : Да
Forced : Нет
Основные цвета : BT.709
Характеристики трансфера : BT.709
Коэффициенты матрицы : BT.709
Аудио #1
Идентификатор : 2
Формат : AC-3
Формат/Информация : Audio Coding 3
Расширение режима : CM (complete main)
Параметр Endianness формата : Big
Идентификатор кодека : A_AC3
Продолжительность : 1 ч. 22 м.
Вид битрейта : Постоянный
Битрейт : 448 Кбит/сек
Каналы : 6 каналов
Расположение каналов : Front: L C R, Side: L R, LFE
Частота : 48,0 КГц
Битовая глубина : 16 бит
Метод сжатия : С потерями
Размер потока : 264 Мбайт (8%)
Заголовок : Inis AC3 5.1 448 kbps
Язык : Russian
Default : Да
Forced : Нет
Аудио #2
Идентификатор : 3
Формат : AC-3
Формат/Информация : Audio Coding 3
Расширение режима : CM (complete main)
Параметр Endianness формата : Big
Идентификатор кодека : A_AC3
Продолжительность : 1 ч. 22 м.
Вид битрейта : Постоянный
Битрейт : 448 Кбит/сек
Каналы : 6 каналов
Расположение каналов : Front: L C R, Side: L R, LFE
Частота : 48,0 КГц
Битовая глубина : 16 бит
Метод сжатия : С потерями
Размер потока : 264 Мбайт (8%)
Заголовок : Gavrilov AC3 5.1 448 kbps
Язык : Russian
Default : Нет
Forced : Нет
Аудио #3
Идентификатор : 4
Формат : AC-3
Формат/Информация : Audio Coding 3
Расширение режима : CM (complete main)
Параметр Endianness формата : Big
Идентификатор кодека : A_AC3
Продолжительность : 1 ч. 22 м.
Вид битрейта : Постоянный
Битрейт : 448 Кбит/сек
Каналы : 6 каналов
Расположение каналов : Front: L C R, Side: L R, LFE
Частота : 48,0 КГц
Битовая глубина : 16 бит
Метод сжатия : С потерями
Размер потока : 264 Мбайт (8%)
Заголовок : Original AC3 5.1 448 kbps
Язык : English
Default : Нет
Forced : Нет
Текст #1
Идентификатор : 5
Формат : UTF-8
Идентификатор кодека : S_TEXT/UTF8
Идентификатор кодека/Информация : UTF-8 Plain Text
Язык : Russian
Default : Нет
Forced : Нет
Текст #2
Идентификатор : 6
Формат : UTF-8
Идентификатор кодека : S_TEXT/UTF8
Идентификатор кодека/Информация : UTF-8 Plain Text
Язык : Ukrainian
Default : Нет
Forced : Нет
Текст #3
Идентификатор : 7
Формат : UTF-8
Идентификатор кодека : S_TEXT/UTF8
Идентификатор кодека/Информация : UTF-8 Plain Text
Язык : English
Default : Нет
Forced : Нет
Меню
00:00:00.000 : en:SPACE FUGITIVES/TITLE
00:04:57.000 : en:RISE AND SHINE
00:08:18.000 : en:STRANGE FREQUENCY
00:10:32.000 : en:EDUCATIONAL VIDEOS
00:13:20.000 : en:GROUNDED FOR LIFE
00:17:28.000 : en:MEET THE PARENTS
00:22:26.000 : en:EARTHQUAKE OR METEOR
00:25:59.000 : en:FEEDING TIME
00:31:25.000 : en:HELP FROM ABOVE
00:37:51.000 : en:A ROLL IN THE HAY
00:41:05.000 : en:BIBLICAL PROPORTIONS
00:43:08.000 : en:THEY HAVE WEAPONS
00:47:41.000 : en:BOUNTY HUNTER BOWLING
00:52:28.000 : en:CRITTER IN THE HOUSE
00:55:17.000 : en:POLICE REPORT
00:57:03.000 : en:BRAD'S RIDE
01:01:32.000 : en:THE EXTERMINATORS
01:06:47.000 : en:RESCUE MISSION
01:15:41.000 : en:HOME IMPROVEMENT
01:18:19.000 : en:END CREDITS

Скриншоты

Other forum [Profile] [PM]
Display posts from previous:    
Reply to topic

The time now is: Today 02:51

All times are GMT + 3 Hours



You cannot post new topics in this forum
You cannot reply to topics in this forum
You cannot edit your posts in this forum
You cannot delete your posts in this forum
You cannot vote in polls in this forum
You cannot attach files in this forum
You cannot download files in this forum