Today is a free download without charge Download

Искатели приключений (Максим Воронков) [2012, Россия, Комедия, приключения, HDTV 1080i]

Reply to topic
 
Author
Message

Omen ®

Longevity: 8 years 5 months

Posts: 181087

Торрент-статистика

Post 12-Feb-2013 01:48

[Quote]

Искатели приключений
Страна: Россия
Студия: Мосфильм
Жанр: Комедия, приключения
Год выпуска: 2012
Продолжительность: 01:41:15
Cубтитры: нет
Режиссер: Максим Воронков
В ролях: Валерия Кудрявцева, Анатолий Пашинин, Игорь Гаспарян, Александр Яцко, Владимир Зайцев, Илья Олейников, Александр Семчев, Иннокентий Тарабара, Юрий Кузнецов-Таёжный, Николай Дроздов, Юрий Маслак, Александр Фарбер, Александр Пашковский, Александр Груздев
Описание: Что может быть опаснее, чем поиски сокровищ? Если ты готов к схваткам с местными гангстерами, погоням и другим острым ощущениям — дерзай! Так и сделали трое азартных друзей — пилот Дэн, гонщик Сергей и красавица Софи, отправившись в экзотический Тайланд на поиски затонувшего сундука с драгоценностями монахов. Следуя указателям на карте, оставленной Софи ее дедушкой, троица зафрахтовав яхту, выходит в открытое море….
Тип релиза: HDTV (1080i)
Контейнер: TS

Релиз от: Релиз группа :
Скачать сэмпл
Видео: MPEG-4 AVC, 8030 kбит/с, 1920x1080, 25.000 Кадр/с
Аудио: Русский AC3, 6 ch, 48.0 KHz, 448 Кбит/с

MediaInfo

Format : MPEG-TS
File size : 6.30 GiB
Duration : 1h 41mn
Overall bit rate : 8 923 Kbps
Video
ID : 321 (0x141)
Menu ID : 12101 (0x2F45)
Format : AVC
Format/Info : Advanced Video Codec
Format profile : [email protected]
Format settings, CABAC : Yes
Format settings, ReFrames : 3 frames
Format settings, GOP : M=4, N=28
Codec ID : 27
Duration : 1h 41mn
Bit rate : 8 030 Kbps
Width : 1 920 pixels
Height : 1 080 pixels
Display aspect ratio : 16:9
Frame rate : 25.000 fps
Standard : Component
Color space : YUV
Chroma subsampling : 4:2:0
Bit depth : 8 bits
Scan type : Interlaced
Scan order : Top Field First
Bits/(Pixel*Frame) : 0.155
Stream size : 5.67 GiB (90%)
Color primaries : BT.709-5, BT.1361, IEC 61966-2-4, SMPTE RP177
Transfer characteristics : BT.709-5, BT.1361
Matrix coefficients : BT.709-5, BT.1361, IEC 61966-2-4 709, SMPTE RP177
Audio
ID : 401 (0x191)
Menu ID : 12101 (0x2F45)
Format : AC-3
Format/Info : Audio Coding 3
Mode extension : CM (complete main)
Format settings, Endianness : Big
Codec ID : 6
Duration : 1h 41mn
Bit rate mode : Constant
Bit rate : 448 Kbps
Channel(s) : 6 channels
Channel positions : Front: L C R, Side: L R, LFE
Sampling rate : 48.0 KHz
Bit depth : 16 bits
Compression mode : Lossy
Delay relative to video : 8ms
Stream size : 324 MiB (5%)
Language : Russian
Language, more info : Clean effects

Скриншоты


Other forum [Profile] [PM]
Display posts from previous:    
Reply to topic

The time now is: Today 12:21

All times are GMT + 3 Hours



You cannot post new topics in this forum
You cannot reply to topics in this forum
You cannot edit your posts in this forum
You cannot delete your posts in this forum
You cannot vote in polls in this forum
You cannot attach files in this forum
You cannot download files in this forum