Today is a free download without charge Download

Метод Лавровой 2 (1-8 серии из 20) (Валерия Ивановская) [2012.., Россия, Детектив, SATRip]

Reply to topic
 
Author
Message

Meshanik ®

Gender:

Longevity: 9 years 6 months

Posts: 3866

Location: Los Angeles

Торрент-статистика

Post 12-Feb-2013 01:43

[Quote]

Метод Лавровой-2 - -Год выхода: 2013
Страна: Россия
Жанр: Детектив
Продолжительность: ~ 00:45:00
Перевод: Не требуется
Субтитры: нет-Режиссер: Валерия Ивановская-Вролях: Светлана Ходченкова, Дмитрий Блохин, Артём Григорьев, Павел Прилучный, Ярослав Жалнин, Григорий Иванец, Максим Виноградов (II), Михаил Хмуров, Дарья Иванова, Ольга Дибцева, Ольга Хохлова (II), Юрий Батурин, Александр Соколовский, Алексей Дайнеко, Сергей Климов, Александр Коротков (II), Владимир Коренев, Татьяна Лютаева, Дарья Лузина, Андрей Москвичев, Евгений Зотов, Михаил Ремизов, Евгений Сафронов (II), Юлия Силаева, Сергей Греков, Наталья Карпунина, Евгений Кулаков, Ильдар Аллабирдин, Борис Шитиков, Константин Конов, А. Новоселов (II), Наталья Коновалова, Анастасия Рысева, Владимир Балдов, Александр Мякушко, С. Герасимов, Анастасия Привалова, Александр Борисов (III), Ольга Хохлова, Сергей Козин, Екатерина Долгова, Виктория Фишер, Марина Вайнбранд, Павел Кузин, Мария Сарбукова, Сергей Васильев (III), Александр Хованский (II), Евгения Бордзиловская, Томас Моцкус, Людмила Гаврилова (II), Григорий Малыгин, Роман Индык, Александр Аншютц, Валерий Скорокосов
Описание: В новом сезоне Кате Лавровой и её курсантам предстоит расследовать череду загадочных убийств участников археологической экспедиции, поломать голову над чертовщиной, происходящей в одной из деревень, распутать дело, в котором замешаны оборотни, и спасти от приговора курсанта, обвиняемого в жестоком убийстве. -Качество: SATRip
Формат: AVI
Видео кодек: XVID
Аудио кодек: МР3
Видео: 704x400, 25 fps, XviD ~1400 kbps avg
Аудио: MP3, 48,0 KHz, 2 ch, 128 Kbps

Внимание!: Раздача ведётся путём добавления новых серий

Внимание! Раздача ведётся путём добавления новых серий; при каждом добавлении создётся новый торрент. Чтобы начать докачку новой серии, пользователям необходимо сделать следующее:
(1) остановить скачивание,
(2) удалить старый торрент у себя из клиента (старые серии удалять не надо),
(3) скачать новый торрент и запустить его у себя в клиенте вместо старого, при этом указать клиенту путь в старую папку куда и должно происходить скачивание новых серий.
Ваш клиент при этом должен произвести хеширование (проверку) старой папки (если не производит сам - помогите ему сделать это), и будет докачивать только те серии которых у вас ещё нет. Старые серии при этом не удаляются, а продолжают раздаваться!
Eсли вы уже удалили старые серии, то предотвратить повторную закачку старых серий можно, отжав галочку в соответсвующих местах при запуске нового торрента. По возможности, желательно не удалять старые серии как можно дольше чтобы релизёр не столько продолжал раздавать старые серии, а смог сконцентрироваться на новых.

MediaInfo

Общее
Полное имя : E:\Раздачи\Обновляемые\Метод Лавровой 2\Metod.Lavrovoy.s02.e01.avi
Формат : AVI
Формат/Информация : Audio Video Interleave
Размер файла : 606 Мбайт
Продолжительность : 48 м.
Общий поток : 1740 Кбит/сек
Программа кодирования : VirtualDubModRus 1.5.10.2 (build 2542/release)
Библиотека кодирования : VirtualDubMod build 2542/release
Видео
Идентификатор : 0
Формат : MPEG-4 Visual
Профиль формата : Advanced [email protected]
Параметр BVOP формата : 2
Параметр QPel формата : Нет
Параметр GMC формата : Без точки перехода
Параметр матрицы формата : Default (H.263)
Режим смешивания : Сжатый битовый поток
Идентификатор кодека : XVID
Идентификатор кодека/Подсказка : XviD
Продолжительность : 48 м.
Битрейт : 1602 Кбит/сек
Ширина : 720 пикселей
Высота : 400 пикселей
Соотношение сторон : 16:9
Частота кадров : 25,000 кадров/сек
Цветовое пространство : YUV
Субдискретизация насыщенности : 4:2:0
Битовая глубина : 8 бит
Тип развёртки : Прогрессивная
Метод сжатия : С потерями
Бит/(Пиксели*Кадры) : 0.222
Размер потока : 558 Мбайт (92%)
Библиотека кодирования : XviD 64
Аудио
Идентификатор : 1
Формат : MPEG Audio
Версия формата : Version 1
Профиль формата : Layer 3
Режим : Joint stereo
Расширение режима : MS Stereo
Идентификатор кодека : 55
Идентификатор кодека/Подсказка : MP3
Продолжительность : 48 м.
Вид битрейта : Постоянный
Битрейт : 128 Кбит/сек
Каналы : 2 канала
Частота : 48,0 КГц
Метод сжатия : С потерями
Размер потока : 44,6 Мбайт (7%)
Выравнивание : Разделение по промежуткам
Продолжительность промежутка : 40 мс. (1,00 видеокадр)
Время предзагрузки промежутка : 500 мс.
Библиотека кодирования : LAME3.98.2

Скриншоты:

         
Other forum [Profile] [PM]
Similar theme
Forum Topic Author Torrent Replies Last Post
./templates/default/images/folder_dl.gif Компьютерная литература Д.В. Чижиков | Методология внедрения Microsoft Active Directory (2016) [PDF] }{@R0N
1 | 0

0 | 7888

10

2017-10-06 10:12
}{@R0N Latest
Display posts from previous:    
Reply to topic

The time now is: Today 05:36

All times are GMT + 3 Hours



You cannot post new topics in this forum
You cannot reply to topics in this forum
You cannot edit your posts in this forum
You cannot delete your posts in this forum
You cannot vote in polls in this forum
You cannot attach files in this forum
You cannot download files in this forum