Сегодня идет свободное скачивание без начисления Download

Мичурин (1948) [H.264] DVDRip

Ответить на тему
 
Автор
Сообщение

Omen ®

Стаж: 5 лет 10 месяцев

Сообщений: 184329

Торрент-статистика

Пост 12-Фев-2013 00:16

[Цитировать]

-Мичурин (1948) [H.264] DVDRip- Русское название: Мичурин
Год выпуска: 1948
Жанр: Драма, биографический
Описание фильма:
Фильм рассказывает о жизни и творческой деятельности талантливого русского ученого - преобразователя природы — Ивана Владимировича Мичурина. Царская власть не относится к Мичурину должным образом. Он исследует и экспериментирует с садовыми растениями и мечтает о других временах, когда люди смогут воспользоваться плодами его исследований. Такие времена наступают после революции 1917 года. Мичуринский сад становится одним из центров советской биологической науки...
Режиссер: Александр Довженко
Актеры: Григорий Белов, Владимир Соловьев, Александра Васильева, Николай Шамин, Федор Григорьев, Михаил Жаров, Константин Нассонов, Алексей Жильцов, Иван Назаров, Виктор Хохряков, Дмитрий Дубов, Геннадий Печников, Владимир Исаев, Сергей Ценин, Юрий Любимов, Иван Каширин, Николай Хрящиков, Георгий Георгиу, Виктор Ключарев, Андрей Петров, Алексей Бахарь, Татьяна Говоркова, Евгений Гуров, Антонина Максимова, Александр Пелевин, Александр Смирнов, Аркадий Цинман, Светлана Боголюбова, Сергей Бондарчук, Павел Винник, Леонид Князев, Алексей Консовский, Алла Ларионова, Клара Лучко
Продолжительность: 01:34:28

Видеокодек: MPEG-4 AVC/H.264
Битрейт видео: ~1940 Кбит/сек
Размер кадра: 694x562
Качество видео: DVDRip
Аудиокодек: AC3 2.0
Битрейт аудио: 192 Кбит/сек

MediaInfo:

Общее
Уникальный идентификатор : 247721133442148915110904569475621945589 (0xBA5D5AD91CDF0C73B5C7A568C3F380F5)
Полное имя : G:\!V\2013\Мичурин DVDRip\Мичурин (1948) [H.264] DVDRip.mkv
Формат : Matroska
Версия формата : Version 2
Размер файла : 1,41 Гбайт
Продолжительность : 1 ч. 34 м.
Общий поток : 2134 Кбит/сек
Дата кодирования : UTC 2013-02-11 14:19:51
Программа кодирования : mkvmerge v5.8.0 ('No Sleep / Pillow') built on Sep 2 2012 15:37:04
Библиотека кодирования : libebml v1.2.3 + libmatroska v1.3.0
Видео
Идентификатор : 1
Формат : AVC
Формат/Информация : Advanced Video Codec
Профиль формата : [url=mailto:[email protected]][email protected][/url]
Параметр CABAC формата : Да
Параметр ReFrames формата : 6 кадров
Идентификатор кодека : V_MPEG4/ISO/AVC
Продолжительность : 1 ч. 34 м.
Битрейт : 1940 Кбит/сек
Ширина : 694 пикселя
Высота : 562 пикселя
Соотношение сторон : 4:3
Режим частоты кадров : Постоянный
Частота кадров : 25,000 кадров/сек
Цветовое пространство : YUV
Субдискретизация насыщенности : 4:2:0
Битовая глубина : 8 бит
Тип развёртки : Прогрессивная
Бит/(Пиксели*Кадры) : 0.199
Размер потока : 1,25 Гбайт (89%)
Библиотека кодирования : x264 core 129 r2230 1cffe9f
Настройки программы : cabac=1 / ref=6 / deblock=1:-1:-1 / analyse=0x3:0x113 / me=umh / subme=10 / psy=1 / psy_rd=1.00:0.15 / mixed_ref=1 / me_range=32 / chroma_me=1 / trellis=2 / 8x8dct=1 / cqm=0 / deadzone=21,11 / fast_pskip=1 / chroma_qp_offset=-3 / threads=6 / lookahead_threads=1 / sliced_threads=0 / nr=0 / decimate=1 / interlaced=0 / bluray_compat=0 / constrained_intra=0 / bframes=10 / b_pyramid=2 / b_adapt=2 / b_bias=0 / direct=1 / weightb=1 / open_gop=0 / weightp=2 / keyint=250 / keyint_min=25 / scenecut=40 / intra_refresh=0 / rc_lookahead=40 / rc=2pass / mbtree=1 / bitrate=1940 / ratetol=1.0 / qcomp=0.60 / qpmin=10 / qpmax=51 / qpstep=4 / cplxblur=20.0 / qblur=0.5 / ip_ratio=1.40 / aq=1:1.00
Default : Да
Forced : Нет
Аудио
Идентификатор : 2
Формат : AC-3
Формат/Информация : Audio Coding 3
Расширение режима : CM (complete main)
Параметр Endianness формата : Big
Идентификатор кодека : A_AC3
Продолжительность : 1 ч. 34 м.
Вид битрейта : Постоянный
Битрейт : 192 Кбит/сек
Каналы : 2 канала
Расположение каналов : Front: L R
Частота : 48,0 КГц
Битовая глубина : 16 бит
Метод сжатия : С потерями
Размер потока : 130 Мбайт (9%)
Default : Да
Forced : Нет
Скриншоты:
         
         
Вне форума [Профиль] [ЛС]
Показать сообщения:    
Ответить на тему

Текущее время: Сегодня 02:19

Часовой пояс: GMT + 3



Вы не можете начинать темы
Вы не можете отвечать на сообщения
Вы не можете редактировать свои сообщения
Вы не можете удалять свои сообщения
Вы не можете голосовать в опросах
Вы не можете прикреплять файлы к сообщениям
Вы не можете скачивать файлы