Today is a free download without charge Download

007: Координаты «Скайфолл» / Skyfall (Сэм Мендес / Sam Mendes) [2012, боевик, триллер, криминал, приключения, 1080p, BDRemux]

Reply to topic
 
Author
Message

Meshanik ®

Gender:

Longevity: 8 years 10 months

Posts: 3866

Location: Los Angeles

Торрент-статистика

Post 11-Feb-2013 23:00

[Quote]

007: Координаты «Скайфолл» / Skyfall- Русское название: 007: Координаты «Скайфолл»
Оригинальное название: Skyfall
Год выпуска: 2012
Производство: Великобритания, США
Жанр: Боевик, Триллер, Криминал, Приключения
Продолжительность: 02:23:10
Перевод: Дублированный
Субтитры: Русские (Forced, Full), Украинские (Forced), Английские (Full, SDH)-Режиссер: Сэм Мендес
Актеры: Дэниэл Крэйг, Хавьер Бардем, Джуди Денч, Рэйф Файнс, Бен Уишоу, Наоми Харрис, Альберт Финни, Беренис Марло, Хелен МакКрори, Тония Сотиропулу, Рори Киннер, Ола Рапас, Николас Вудесон, Уильям Бакхерст, Элиз дю Ту, Йен Бонар, Гордон Милн, Питер Башам, Бен Лойд-Холмс, Вульф Блицер, Дэвид Гиллис, Джеймс Ли, Кеннет Хэзелдайн, Орион Ли, Дейв Вон, Тэнк Донг, Роджер Йуан, Лианг Янг, Еннис Чун-Ян, Чойе Бэй, Сид Мэн, Анджела Трэн, Миодраг Капор, Хув Эдвардс, Адебайо Боладжи, Элиа Ло Тауро, Амир Бутрус, Хан Бонфилс, Николас Го, Джон Ходжкинсон, Курт Эгиаван, Оливер Джонстоун, Гарри Кершоу, Берт Цезар, Пол Венаблс, Криспин Леттс-Описание фильма:
Лояльность Бонда своей начальнице М под угрозой со стороны ее прошлого, которое внезапно даст о себе знать. MI6 подвергается нападению, и агент 007 должен ликвидировать угрозу, несмотря на цену, которую придется заплатить.- -Дата мировой премьеры: 23.10.2012
Дата российской премьеры: 26.10.2012
Дата выхода DVD релиза: 14.02.2013-Видеокодек: MPEG-4 AVC/H.264
Битрейт видео: ~24300 kb/s
Размер кадра: 1920 х 1080
Качество видео: BDRemux
Аудиокодек: DTS, АС-3, DTS-HD MA
Аудио 1: Русский, DTS, 5.1 / 48 kHz / 768 kbps / 24-bit (Дублированный)
Аудио 1: Украинский, АС-3, 5.1 / 48 kHz / 448 kbps (Дублированный)
Аудио 2: Английский, DTS-HD MA, 5.1 / 48 kHz / 3830 kbps / 24-bit (DTS Core: 5.1 / 48 kHz / 1509 kbps / 24-bit)
-

MediaInfo:

Общее
Уникальный идентификатор : 249674320676334028875128207306619183558 (0xBBD58669E8230B828111C01FE2F161C6)
Полное имя : Skyfall.2012.1080p.BDRemux.mkv
Формат : Matroska
Версия формата : Version 4 / Version 2
Размер файла : 27,6 Гбайт
Продолжительность : 2 ч. 23 м.
Режим общего битрейта : Переменный
Общий поток : 27,6 Мбит/сек
Дата кодирования : UTC 2013-02-01 18:11:31
Программа кодирования : mkvmerge v6.0.0 ('Coming Up For Air') built on Jan 20 2013 09:52:00
Библиотека кодирования : libebml v1.3.0 + libmatroska v1.4.0
Видео
Идентификатор : 1
Формат : AVC
Формат/Информация : Advanced Video Codec
Профиль формата : [url=mailto:[email protected]][email protected][/url]
Параметр CABAC формата : Да
Параметр ReFrames формата : 4 кадра
Идентификатор кодека : V_MPEG4/ISO/AVC
Продолжительность : 2 ч. 23 м.
Вид битрейта : Переменный
Битрейт : 24,3 Мбит/сек
Максимальный битрейт : 33,2 Мбит/сек
Ширина : 1920 пикселей
Высота : 1080 пикселей
Соотношение сторон : 16:9
Режим частоты кадров : Постоянный
Частота кадров : 23,976 кадра/сек
Цветовое пространство : YUV
Субдискретизация насыщенности : 4:2:0
Битовая глубина : 8 бит
Тип развёртки : Прогрессивная
Бит/(Пиксели*Кадры) : 0.488
Размер потока : 24,3 Гбайт (88%)
Язык : English
Default : Нет
Forced : Нет
Аудио #1
Идентификатор : 2
Формат : DTS
Формат/Информация : Digital Theater Systems
Идентификатор кодека : A_DTS
Продолжительность : 2 ч. 23 м.
Вид битрейта : Постоянный
Битрейт : 755 Кбит/сек
Каналы : 6 каналов
Расположение каналов : Front: L C R, Side: L R, LFE
Частота : 48,0 КГц
Битовая глубина : 24 бит
Метод сжатия : С потерями
Размер потока : 773 Мбайт (3%)
Язык : Russian
Default : Да
Forced : Нет
Аудио #2
Идентификатор : 3
Формат : AC-3
Формат/Информация : Audio Coding 3
Расширение режима : CM (complete main)
Параметр Endianness формата : Big
Идентификатор кодека : A_AC3
Продолжительность : 2 ч. 23 м.
Вид битрейта : Постоянный
Битрейт : 448 Кбит/сек
Каналы : 6 каналов
Расположение каналов : Front: L C R, Side: L R, LFE
Частота : 48,0 КГц
Битовая глубина : 16 бит
Метод сжатия : С потерями
Размер потока : 459 Мбайт (2%)
Язык : Ukrainian
Default : Нет
Forced : Нет
Аудио #3
Идентификатор : 4
Формат : DTS
Формат/Информация : Digital Theater Systems
Профиль формата : MA / Core
Идентификатор кодека : A_DTS
Продолжительность : 2 ч. 23 м.
Вид битрейта : Переменный
Битрейт : 1561 Кбит/сек / 1510 Кбит/сек
Каналы : 6 каналов
Расположение каналов : Front: L C R, Side: L R, LFE
Частота : 48,0 КГц
Битовая глубина : 24 бит
Метод сжатия : Без потерь / Lossy
Язык : English
Default : Нет
Forced : Нет
Текст #1
Идентификатор : 5
Формат : UTF-8
Идентификатор кодека : S_TEXT/UTF8
Идентификатор кодека/Информация : UTF-8 Plain Text
Заголовок : Forced
Язык : Russian
Default : Да
Forced : Нет
Текст #2
Идентификатор : 6
Формат : UTF-8
Идентификатор кодека : S_TEXT/UTF8
Идентификатор кодека/Информация : UTF-8 Plain Text
Язык : Russian
Default : Нет
Forced : Нет
Текст #3
Идентификатор : 7
Формат : UTF-8
Идентификатор кодека : S_TEXT/UTF8
Идентификатор кодека/Информация : UTF-8 Plain Text
Заголовок : Forced
Язык : Ukrainian
Default : Нет
Forced : Нет
Текст #4
Идентификатор : 8
Формат : UTF-8
Идентификатор кодека : S_TEXT/UTF8
Идентификатор кодека/Информация : UTF-8 Plain Text
Язык : English
Default : Нет
Forced : Нет
Текст #5
Идентификатор : 9
Формат : UTF-8
Идентификатор кодека : S_TEXT/UTF8
Идентификатор кодека/Информация : UTF-8 Plain Text
Заголовок : SDH
Язык : English
Default : Нет
Forced : Нет
Меню
00:00:00.000 : en:00:00:00.000
00:04:28.477 : en:00:04:28.477
00:07:32.452 : en:00:07:32.452
00:12:47.392 : en:00:12:47.392
00:16:47.465 : en:00:16:47.465
00:21:37.338 : en:00:21:37.338
00:25:00.290 : en:00:25:00.290
00:29:25.222 : en:00:29:25.222
00:35:06.146 : en:00:35:06.146
00:38:27.764 : en:00:38:27.764
00:41:24.440 : en:00:41:24.440
00:46:22.905 : en:00:46:22.905
00:50:48.629 : en:00:50:48.629
00:54:53.290 : en:00:54:53.290
00:59:38.742 : en:00:59:38.742
01:05:14.244 : en:01:05:14.244
01:10:16.671 : en:01:10:16.671
01:17:09.750 : en:01:17:09.750
01:20:55.059 : en:01:20:55.059
01:26:10.374 : en:01:26:10.374
01:31:49.754 : en:01:31:49.754
01:37:04.527 : en:01:37:04.527
01:40:49.085 : en:01:40:49.085
01:43:45.970 : en:01:43:45.970
01:45:54.723 : en:01:45:54.723
01:52:10.599 : en:01:52:10.599
01:54:45.796 : en:01:54:45.796
01:58:13.044 : en:01:58:13.044
02:02:49.112 : en:02:02:49.112
02:09:38.646 : en:02:09:38.646
02:14:49.623 : en:02:14:49.623
02:17:46.425 : en:02:17:46.425

Скриншоты:

       
Other forum [Profile] [PM]
Display posts from previous:    
Reply to topic

The time now is: Today 18:32

All times are GMT + 3 Hours



You cannot post new topics in this forum
You cannot reply to topics in this forum
You cannot edit your posts in this forum
You cannot delete your posts in this forum
You cannot vote in polls in this forum
You cannot attach files in this forum
You cannot download files in this forum