Today is a free download without charge Download

007: Координаты «Скайфолл» / Skyfall (Сэм Мендес / Sam Mendes) [2012, боевик, триллер, криминал, приключения, 720p, BDRip]

Reply to topic
 
Author
Message

Meshanik ®

Gender:

Longevity: 8 years 10 months

Posts: 3866

Location: Los Angeles

Торрент-статистика

Post 11-Feb-2013 22:46

[Quote]

007: Координаты «Скайфолл» / Skyfall- Русское название: 007: Координаты «Скайфолл»
Оригинальное название: Skyfall
Год выпуска: 2012
Жанр: Боевик, Триллер, Криминал
Продолжительность: 02:23:09
Перевод: Дублированный

Субтитры: Русские (Full, 2xCommentary), Английские (Full, 2xCommentary), Украинские (Forced)
Описание фильма:
Лояльность Бонда своей начальнице М под угрозой со стороны ее прошлого, которое внезапно даст о себе знать. MI6 подвергается нападению, и агент 007 должен ликвидировать угрозу, несмотря на цену, которую придется заплатить.
Режиссер: Сэм Мендес
Актеры: Дэниэл Крэйг, Хавьер Бардем, Джуди Денч, Рэйф Файнс, Наоми Харрис, Бен Уишоу, Альберт Финни, Беренис Марло, Хелен МакКрори, Тония Сотиропулу


Рейтинг PG-13 - Детям до 13 лет просмотр не желателен-Контейнер: MKV
Качество видео: BDRip
Видеокодек: MPEG-4 AVC
Аудиокодек: DTS, AC-3
Bидео: 1280x534 at 23.976 fps, 2pass, ~5000 kb/s

Аудио# 1: Русский: DTS, 5.1 ch, ~ 768 kb/s|Дублированный, Blu-Ray|
Аудио# 2: Украинский: AC-3, 5.1 ch, ~448 kb/s |Дублированный, Blu-Ray|
Аудио# 3: Английский: DTS, 5.1 ch, ~ 1509 kb/s
Аудио# 4: Английский: AC-3, 5.1 ch, ~ 448 kb/s |Descriptive|
Аудио# 4: Английский: AC-3, 2.0 ch, ~ 224 kb/s |Commentary, by Director Sam Mendes|
Аудио# 5: Английский: AC-3, 2.0 ch, ~ 224 kb/s |Commentary, Producers Barbara Broccoli and Michael G. Wilson|

MediaInfo:

Формат : Matroska
Версия формата : Version 2
Размер файла : 8,62 Гбайт
Продолжительность : 2 ч. 23 м.
Общий поток : 8622 Кбит/сек
Название фильма : HDCLUB present "Skyfall (2012)"
Дата кодирования : UTC 2013-02-02 05:11:25
Программа кодирования : mkvmerge v5.8.0 ('No Sleep / Pillow') built on Sep 2 2012 15:37:04
Библиотека кодирования : libebml v1.2.3 + libmatroska v1.3.0
Видео
Идентификатор : 1
Формат : AVC
Формат/Информация : Advanced Video Codec
Профиль формата : [url=mailto:[email protected]][email protected][/url]
Параметр CABAC формата : Да
Параметр ReFrames формата : 12 кадров
Идентификатор кодека : V_MPEG4/ISO/AVC
Продолжительность : 2 ч. 23 м.
Битрейт : 5000 Кбит/сек
Ширина : 1280 пикселей
Высота : 534 пикселя
Соотношение сторон : 2,40:1
Режим частоты кадров : Постоянный
Частота кадров : 23,976 кадра/сек
Цветовое пространство : YUV
Субдискретизация насыщенности : 4:2:0
Битовая глубина : 8 бит
Тип развёртки : Прогрессивная
Бит/(Пиксели*Кадры) : 0.305
Размер потока : 4,83 Гбайт (56%)
Заголовок : Skyfall.2012.720p.BluRay.Rus.Ukr.4xEng.HDCLUB
Библиотека кодирования : x264 core 129 r2245 bc13772
Настройки программы : cabac=1 / ref=12 / deblock=1:-3:-3 / analyse=0x3:0x133 / me=umh / subme=11 / psy=1 / psy_rd=1.05:0.05 / mixed_ref=1 / me_range=32 / chroma_me=1 / trellis=2 / 8x8dct=1 / cqm=0 / deadzone=21,11 / fast_pskip=0 / chroma_qp_offset=-3 / threads=12 / lookahead_threads=2 / sliced_threads=0 / nr=0 / decimate=0 / interlaced=0 / bluray_compat=0 / constrained_intra=0 / bframes=7 / b_pyramid=2 / b_adapt=2 / b_bias=0 / direct=3 / weightb=1 / open_gop=0 / weightp=2 / keyint=240 / keyint_min=23 / scenecut=40 / intra_refresh=0 / rc_lookahead=60 / rc=2pass / mbtree=0 / bitrate=5000 / ratetol=1.0 / qcomp=0.60 / qpmin=0 / qpmax=69 / qpstep=4 / cplxblur=20.0 / qblur=0.5 / vbv_maxrate=50000 / vbv_bufsize=62500 / nal_hrd=none / ip_ratio=1.40 / pb_ratio=1.30 / aq=1:0.80
Язык : English
Default : Да
Forced : Нет
Аудио #1
Идентификатор : 2
Формат : DTS
Формат/Информация : Digital Theater Systems
Режим : 16
Параметр Endianness формата : Big
Идентификатор кодека : A_DTS
Продолжительность : 2 ч. 23 м.
Вид битрейта : Постоянный
Битрейт : 768 Кбит/сек
Каналы : 6 каналов
Расположение каналов : Front: L C R, Side: L R, LFE
Частота : 48,0 КГц
Битовая глубина : 24 бит
Метод сжатия : С потерями
Размер потока : 786 Мбайт (9%)
Заголовок : DTS 5.1 @ 768 - Dubbed [BluRay]
Язык : Russian
Default : Да
Forced : Нет
Аудио #2
Идентификатор : 3
Формат : AC-3
Формат/Информация : Audio Coding 3
Расширение режима : CM (complete main)
Параметр Endianness формата : Big
Идентификатор кодека : A_AC3
Продолжительность : 2 ч. 23 м.
Вид битрейта : Постоянный
Битрейт : 448 Кбит/сек
Каналы : 6 каналов
Расположение каналов : Front: L C R, Side: L R, LFE
Частота : 48,0 КГц
Битовая глубина : 16 бит
Метод сжатия : С потерями
Размер потока : 459 Мбайт (5%)
Заголовок : AC3 5.1 @ 448 - Dubbed [BluRay]
Язык : Ukrainian
Default : Нет
Forced : Нет
Аудио #3
Идентификатор : 4
Формат : DTS
Формат/Информация : Digital Theater Systems
Режим : 16
Параметр Endianness формата : Big
Идентификатор кодека : A_DTS
Продолжительность : 2 ч. 23 м.
Вид битрейта : Постоянный
Битрейт : 1509 Кбит/сек
Каналы : 6 каналов
Расположение каналов : Front: L C R, Side: L R, LFE
Частота : 48,0 КГц
Битовая глубина : 24 бит
Метод сжатия : С потерями
Размер потока : 1,51 Гбайт (18%)
Заголовок : DTS 5.1 @ 1509 - Original [BluRay]
Язык : English
Default : Нет
Forced : Нет
Аудио #4
Идентификатор : 5
Формат : AC-3
Формат/Информация : Audio Coding 3
Расширение режима : CM (complete main)
Параметр Endianness формата : Big
Идентификатор кодека : A_AC3
Продолжительность : 2 ч. 23 м.
Вид битрейта : Постоянный
Битрейт : 448 Кбит/сек
Каналы : 6 каналов
Расположение каналов : Front: L C R, Side: L R, LFE
Частота : 48,0 КГц
Битовая глубина : 16 бит
Метод сжатия : С потерями
Размер потока : 459 Мбайт (5%)
Заголовок : AC3 5.1 @ 448 - Descriptive
Язык : English
Default : Нет
Forced : Нет
Аудио #5
Идентификатор : 6
Формат : AC-3
Формат/Информация : Audio Coding 3
Расширение режима : CM (complete main)
Параметр Endianness формата : Big
Идентификатор кодека : A_AC3
Продолжительность : 2 ч. 23 м.
Вид битрейта : Постоянный
Битрейт : 224 Кбит/сек
Каналы : 2 канала
Расположение каналов : Front: L R
Частота : 48,0 КГц
Битовая глубина : 16 бит
Метод сжатия : С потерями
Размер потока : 229 Мбайт (3%)
Заголовок : AC3 2.0 @ 224 - Commentary Sam Mendes
Язык : English
Default : Нет
Forced : Нет
Аудио #6
Идентификатор : 7
Формат : AC-3
Формат/Информация : Audio Coding 3
Расширение режима : CM (complete main)
Параметр Endianness формата : Big
Идентификатор кодека : A_AC3
Продолжительность : 2 ч. 23 м.
Вид битрейта : Постоянный
Битрейт : 224 Кбит/сек
Каналы : 2 канала
Расположение каналов : Front: L R
Частота : 48,0 КГц
Битовая глубина : 16 бит
Метод сжатия : С потерями
Размер потока : 229 Мбайт (3%)
Заголовок : AC3 2.0 @ 224 - Commentary Dennis Gassner
Язык : English
Default : Нет
Forced : Нет
Текст #1
Идентификатор : 8
Формат : UTF-8
Идентификатор кодека : S_TEXT/UTF8
Идентификатор кодека/Информация : UTF-8 Plain Text
Язык : Russian
Default : Нет
Forced : Нет
Текст #2
Идентификатор : 9
Формат : UTF-8
Идентификатор кодека : S_TEXT/UTF8
Идентификатор кодека/Информация : UTF-8 Plain Text
Заголовок : Commentary Sam Mendes
Язык : Russian
Default : Нет
Forced : Нет
Текст #3
Идентификатор : 10
Формат : UTF-8
Идентификатор кодека : S_TEXT/UTF8
Идентификатор кодека/Информация : UTF-8 Plain Text
Заголовок : Commentary Dennis Gassner
Язык : Russian
Default : Нет
Forced : Нет
Текст #4
Идентификатор : 11
Формат : UTF-8
Идентификатор кодека : S_TEXT/UTF8
Идентификатор кодека/Информация : UTF-8 Plain Text
Заголовок : Forced
Язык : Ukrainian
Default : Нет
Forced : Нет
Текст #5
Идентификатор : 12
Формат : UTF-8
Идентификатор кодека : S_TEXT/UTF8
Идентификатор кодека/Информация : UTF-8 Plain Text
Язык : English
Default : Нет
Forced : Нет
Текст #6
Идентификатор : 13
Формат : UTF-8
Идентификатор кодека : S_TEXT/UTF8
Идентификатор кодека/Информация : UTF-8 Plain Text
Заголовок : Commentary Sam Mendes
Язык : English
Default : Нет
Forced : Нет
Текст #7
Идентификатор : 14
Формат : UTF-8
Идентификатор кодека : S_TEXT/UTF8
Идентификатор кодека/Информация : UTF-8 Plain Text
Заголовок : Commentary Dennis Gassner
Язык : English
Default : Нет
Forced : Нет
Меню
00:00:00.000 : en:Opening Credits
00:04:28.476 : en:Ghost Ship
00:07:32.452 : en:Into the Wreck
00:12:47.391 : en:The Keldysh
00:16:47.464 : en:The Woman in the Picture
00:21:37.337 : en:Old Rose Arrives
00:25:00.290 : en:Reflections of the Past
00:29:25.221 : en:Back to Titanic
00:35:06.145 : en:A Lucky Hand
00:38:27.763 : en:Leaving Port
00:41:24.440 : en:Cherbourg
00:46:22.905 : en:Ode to Titanic
00:50:48.628 : en:First Glance
00:54:53.290 : en:"You Jump, I Jump"
00:59:38.741 : en:An Invitation to Dinner
01:05:14.243 : en:The Heart of the Ocean
01:10:16.670 : en:Sketches and Stories
01:17:09.750 : en:Learning New Things
01:20:55.058 : en:Dinner with Jack
01:26:10.373 : en:A Real Party
01:31:49.754 : en:A Cold Breakfast
01:37:04.527 : en:Sunday Prayer
01:40:49.084 : en:"They've Got You Trapped"
01:43:45.969 : en:Flying
01:45:54.723 : en:"That Was the Last Time..."
01:52:10.598 : en:The Drawing
01:54:45.795 : en:"My Heart Was Pounding"
01:58:13.044 : en:"Find Her"
02:02:49.111 : en:Two Souls United
02:09:38.645 : en:"Iceberg Right Ahead!"
02:14:49.623 : en:An Honest Thief
02:17:46.424 : en:A Mathematical Certainty
Скриншоты:

         
         
Other forum [Profile] [PM]
Display posts from previous:    
Reply to topic

The time now is: Today 10:24

All times are GMT + 3 Hours



You cannot post new topics in this forum
You cannot reply to topics in this forum
You cannot edit your posts in this forum
You cannot delete your posts in this forum
You cannot vote in polls in this forum
You cannot attach files in this forum
You cannot download files in this forum