Today is a free download without charge Download

Унесенные ветром / Gone with the Wind (Виктор Флеминг, Джордж Кьюкор, Сэм Вуд) [1939 г., драма, мелодрама, военный, BDRip 720р]

Reply to topic
 
Author
Message

Delia ®

Gender:

Longevity: 9 years 6 months

Posts: 1821

Торрент-статистика

Post 23-May-2011 09:49

[Quote]

Унесенные ветром Gone with the Wind Год выпуска: 1939
Страна: США
Жанр: драма, мелодрама, военный
Продолжительность:01:43:59 | 02:00:57
Перевод: Профессиональный (полное дублирование СССР)
Режиссер: Виктор Флеминг, Джордж Кьюкор, Сэм Вуд
Продюссер: Дэвид О. Селзник
Сценарий: Маргарет Митчел, Сидни Ховард, Оливер Х.П. Гэррет
Бюджет: $3 900 000
Премьера в мире: 15 декабря 1939
В ролях: Вивьен Ли, Кларк Гейбл, Лесли Говард, Оливия де Хэвиллэнд, Оскар Полк, Хетти МакДэниел, Эверетт Браун, Томас Митчел, Барбара О’Нил, Эвелин Кийес
Описание: Фильм на все времена... Фильм-легенда... Фильм, прошедший жестокую и неумолимую проверку временем... Фильм, названный авторитетным американским критиком Леонардом Молтином "абсолютным шедевром Голливуда". Фильм, поставленный по знаменитому роману Маргарет Митчелл, получившему Пулитцеровскую премию... Незабываемый любовный роман времен американской Гражданской войны, получивший 10 Оскаров. Бессмертным героям этой эпической саги Ретту Батлеру и Скарлетт О'Хара удалось покорить не одно поколение кинозрителей. Надеемся, теперь он займет почетное место и в Вашей коллекции...
Качество: BDRip
Формат: MKV
Видео кодек: H.264
Аудио кодек: AC3
Фильм первый:
Видео: English, 5249 Кбит/сек, 980*720 (4:3), в 23,976 кадр/сек, AVC ([email protected])
Аудио: Russian, 192 Кбит/сек, 48,0 КГц, 16 бит, 2 канала(ов), AC-3 |дубляж СССР
Аудио: English, 384 Кбит/сек, 48,0 КГц, 16 бит, 6 канала(ов), AC-3 |оригинал
Аудио:Russian, 384 Кбит/сек, 48,0 КГц, 16 бит, 6 канала(ов), AC-3 |дубляж 1995 г
Субтитры:Russian, Ukrainian, English - VobSubФильм второй:
Видео:English, 4655 Кбит/сек, 980*720 (4:3), в 23,976 кадр/сек, AVC ([email protected])
Аудио:Russian, 192 Кбит/сек, 48,0 КГц, 16 бит, 2 канала(ов), AC-3 |дубляж ССССР
Аудио:English, 320 Кбит/сек, 48,0 КГц, 16 бит, 6 канала(ов), AC-3 |оригинал
Аудио: Russian, 384 Кбит/сек, 48,0 КГц, 16 бит, 6 канала(ов), AC-3 |дубляж 1995 г
Субтитры:Russian, Ukrainian, English - VobSub

MI:

Общее
Уникальный идентификатор : 184245760970716006159262517496755506294 (0x8A9C715C851795B891E40563484BCC76)
Полное имя : E:\торрент\Gone with the Wind (1939) BDRip 720p\Gone with the Wind (1939) BDRip 720р.mkv
Формат : Matroska
Размер файла : 4,24 Гбайт
Продолжительность : 1 ч. 44 м.
Общий поток : 5839 Кбит/сек
Дата кодирования : UTC 2011-05-22 17:54:23
Программа кодирования : mkvmerge v4.7.0 ('Just Like You Imagined') built on Apr 21 2011 01:13:14
Библиотека кодирования : libebml v1.2.0 + libmatroska v1.1.0
Видео
Идентификатор : 1
Формат : AVC
Формат/Информация : Advanced Video Codec
Профиль формата : [email protected]
Параметр CABAC формата : Да
Параметр ReFrames формата : 8 кадры
Идентификатор кодека : V_MPEG4/ISO/AVC
Продолжительность : 1 ч. 43 м.
Битрейт : 5249 Кбит/сек
Ширина : 980 пикс.
Высота : 720 пикс.
Соотношение сторон : 4:3
Частота кадров : 23,976 кадр/сек
Цветовое пространство : YUV
Подвыборка цветности : 4:2:0
Битовая глубина : 8 бит
Тип развёртки : Прогрессивная
Бит/(Пиксели*Кадры) : 0.310
Размер потока : 3,74 Гбайт (88%)
Библиотека кодирования : x264 core 115 r1995 c1e60b9
Настройки программы : cabac=1 / ref=8 / deblock=1:-3:-3 / analyse=0x3:0x133 / me=umh / subme=7 / psy=1 / psy_rd=1.00:0.15 / mixed_ref=1 / me_range=32 / chroma_me=1 / trellis=2 / 8x8dct=1 / cqm=0 / deadzone=21,11 / fast_pskip=0 / chroma_qp_offset=-3 / threads=6 / sliced_threads=0 / nr=0 / decimate=1 / interlaced=0 / bluray_compat=0 / constrained_intra=0 / bframes=5 / b_pyramid=2 / b_adapt=1 / b_bias=0 / direct=1 / weightb=1 / open_gop=0 / weightp=2 / keyint=250 / keyint_min=24 / scenecut=40 / intra_refresh=0 / rc_lookahead=50 / rc=2pass / mbtree=1 / bitrate=5249 / ratetol=1.0 / qcomp=0.80 / qpmin=5 / qpmax=51 / qpstep=4 / cplxblur=20.0 / qblur=0.5 / ip_ratio=1.40 / aq=1:1.00
Язык : English
Аудио #1
Идентификатор : 2
Формат : AC-3
Формат/Информация : Audio Coding 3
Расширение режима : CM (complete main)
Идентификатор кодека : A_AC3
Продолжительность : 1 ч. 44 м.
Вид битрейта : Постоянный
Битрейт : 192 Кбит/сек
Канал(ы) : 2 канала(ов)
Расположение каналов : Front: L R
Частота : 48,0 КГц
Битовая глубина : 16 бит
Метод сжатия : С потерями
Размер потока : 143 Мбайт (3%)
Язык : Russian
Аудио #2
Идентификатор : 3
Формат : AC-3
Формат/Информация : Audio Coding 3
Расширение режима : CM (complete main)
Идентификатор кодека : A_AC3
Продолжительность : 1 ч. 44 м.
Вид битрейта : Постоянный
Битрейт : 384 Кбит/сек
Канал(ы) : 6 канала(ов)
Расположение каналов : Front: L C R, Side: L R, LFE
Частота : 48,0 КГц
Битовая глубина : 16 бит
Метод сжатия : С потерями
Размер потока : 286 Мбайт (7%)
Язык : English
Текст #1
Идентификатор : 4
Формат : VobSub
Режим смешивания : zlib
Идентификатор кодека : S_VOBSUB
Идентификатор кодека/Информация : The same subtitle format used on DVDs
Язык : Russian
Текст #2
Идентификатор : 5
Формат : VobSub
Режим смешивания : zlib
Идентификатор кодека : S_VOBSUB
Идентификатор кодека/Информация : The same subtitle format used on DVDs
Язык : Ukrainian
Текст #3
Идентификатор : 6
Формат : VobSub
Режим смешивания : zlib
Идентификатор кодека : S_VOBSUB
Идентификатор кодека/Информация : The same subtitle format used on DVDs
Язык : English

MI:

Общее
Уникальный идентификатор : 204464682980167728817112362123167790608 (0x99D2772E6C63C106A1889BE669C3F610)
Полное имя : E:\торрент\Gone with the Wind (1939) BDRip 720p\Gone with the Wind 2 (1939) BDRip 720p.mkv
Формат : Matroska
Размер файла : 4,38 Гбайт
Продолжительность : 2 ч. 0 м.
Общий поток : 5182 Кбит/сек
Дата кодирования : UTC 2011-05-23 05:23:38
Программа кодирования : mkvmerge v4.7.0 ('Just Like You Imagined') built on Apr 21 2011 01:13:14
Библиотека кодирования : libebml v1.2.0 + libmatroska v1.1.0
Видео
Идентификатор : 1
Формат : AVC
Формат/Информация : Advanced Video Codec
Профиль формата : [email protected]
Параметр CABAC формата : Да
Параметр ReFrames формата : 8 кадры
Идентификатор кодека : V_MPEG4/ISO/AVC
Продолжительность : 2 ч. 0 м.
Битрейт : 4655 Кбит/сек
Ширина : 980 пикс.
Высота : 720 пикс.
Соотношение сторон : 4:3
Частота кадров : 23,976 кадр/сек
Цветовое пространство : YUV
Подвыборка цветности : 4:2:0
Битовая глубина : 8 бит
Тип развёртки : Прогрессивная
Бит/(Пиксели*Кадры) : 0.275
Размер потока : 3,86 Гбайт (88%)
Библиотека кодирования : x264 core 115 r1995 c1e60b9
Настройки программы : cabac=1 / ref=8 / deblock=1:-3:-3 / analyse=0x3:0x133 / me=umh / subme=7 / psy=1 / psy_rd=1.00:0.15 / mixed_ref=1 / me_range=32 / chroma_me=1 / trellis=2 / 8x8dct=1 / cqm=0 / deadzone=21,11 / fast_pskip=0 / chroma_qp_offset=-3 / threads=6 / sliced_threads=0 / nr=0 / decimate=1 / interlaced=0 / bluray_compat=0 / constrained_intra=0 / bframes=5 / b_pyramid=2 / b_adapt=1 / b_bias=0 / direct=1 / weightb=1 / open_gop=0 / weightp=2 / keyint=250 / keyint_min=24 / scenecut=40 / intra_refresh=0 / rc_lookahead=50 / rc=2pass / mbtree=1 / bitrate=4655 / ratetol=1.0 / qcomp=0.80 / qpmin=5 / qpmax=51 / qpstep=4 / cplxblur=20.0 / qblur=0.5 / ip_ratio=1.40 / aq=1:1.00
Язык : English
Аудио #1
Идентификатор : 2
Формат : AC-3
Формат/Информация : Audio Coding 3
Расширение режима : CM (complete main)
Идентификатор кодека : A_AC3
Продолжительность : 2 ч. 0 м.
Вид битрейта : Постоянный
Битрейт : 192 Кбит/сек
Канал(ы) : 2 канала(ов)
Расположение каналов : Front: L R
Частота : 48,0 КГц
Битовая глубина : 16 бит
Метод сжатия : С потерями
Размер потока : 166 Мбайт (4%)
Язык : Russian
Аудио #2
Идентификатор : 3
Формат : AC-3
Формат/Информация : Audio Coding 3
Расширение режима : CM (complete main)
Идентификатор кодека : A_AC3
Продолжительность : 2 ч. 0 м.
Вид битрейта : Постоянный
Битрейт : 320 Кбит/сек
Канал(ы) : 6 канала(ов)
Расположение каналов : Front: L C R, Side: L R, LFE
Частота : 48,0 КГц
Битовая глубина : 16 бит
Метод сжатия : С потерями
Размер потока : 277 Мбайт (6%)
Язык : English
Текст #1
Идентификатор : 4
Формат : VobSub
Режим смешивания : zlib
Идентификатор кодека : S_VOBSUB
Идентификатор кодека/Информация : The same subtitle format used on DVDs
Язык : Russian
Текст #2
Идентификатор : 5
Формат : VobSub
Режим смешивания : zlib
Идентификатор кодека : S_VOBSUB
Идентификатор кодека/Информация : The same subtitle format used on DVDs
Язык : Ukrainian
Текст #3
Идентификатор : 6
Формат : VobSub
Режим смешивания : zlib
Идентификатор кодека : S_VOBSUB
Идентификатор кодека/Информация : The same subtitle format used on DVDs
Язык : English

Скриншоты 1

        

Скриншоты 2

        

_________________
Человек – это канат, натянутый между животным и сверхчеловеком, – канат над пропастью.
В человеке ценно то, что он мост, а не цель. Фридрих Ницше


Last edited by Delia on 2011-08-26 18:27; edited 1 time in total
Other forum [Profile] [PM]
Display posts from previous:    
Reply to topic

The time now is: Today 18:03

All times are GMT + 3 Hours



You cannot post new topics in this forum
You cannot reply to topics in this forum
You cannot edit your posts in this forum
You cannot delete your posts in this forum
You cannot vote in polls in this forum
You cannot attach files in this forum
You cannot download files in this forum