Today is a free download without charge Download

007: Координаты «Скайфолл» / Skyfall (Сэм Мендес / Sam Mendes) [2012, боевик, триллер, криминал, приключения, 1080p, BDRip]

Reply to topic
 
Author
Message

Meshanik ®

Gender:

Longevity: 8 years 10 months

Posts: 3866

Location: Los Angeles

Торрент-статистика

Post 11-Feb-2013 22:40

[Quote]

007: Координаты «Скайфолл» / Skyfall- Русское название: 007: Координаты «Скайфолл»
Оригинальное название: Skyfall
Год выпуска: 2012
Производство: Metro-Goldwyn-Mayer (MGM) [Великобритания, США]
Жанр: Боевик, триллер, криминал, приключения
Перевод: Дублированный [лицензия]
Субтитры: Вшитые отключаемые
Язык субтитров: Русский (форсированные, полные, комментарии - 2 вида), украинский (форсированные), английский
Режиссер: Сэм Мендес
Актеры: Дэниэл Крэйг, Хавьер Бардем, Джуди Денч, Рэйф Файнс, Наоми Харрис, Бен Уишоу, Альберт Финни, Беренис Марло, Хелен МакКрори, Тония Сотиропулу
Описание фильма:
Лояльность Бонда своей начальнице М под угрозой со стороны ее прошлого, которое внезапно даст о себе знать. MI6 подвергается нападению, и агент 007 должен ликвидировать угрозу, несмотря на цену, которую придется заплатить.
Дата мировой премьеры: 23 октября 2012
Дата российской премьеры: 26 октября 2012, «WDSSPR»
Дата выхода DVD релиза: 14 февраля 2013, «20 Век Фокс СНГ»
Дата выхода Blu-Ray релиза: 14 февраля 2013, «20 Век Фокс СНГ»

Рейтинг PG-13 - Детям до 13 лет просмотр не желателен
Возраст 16+ - Зрителям, достигшим 16 лет
Продолжительность: 02:23:09
Качество видео: BDRip
Видео: MPEG4_AVC/H.264, 1920x800, ~14500 kbps, Bit/Pixel: 0.393
Аудио 1: DTS 5.1, 755 kbps [Русский - дублированный]
Аудио 2: AC3 5.1, 448 kbps [Украинский - дублированный]
Аудио 3: DTS 5.1, 1510 kbps [Английский - оригинал]
Аудио 4: AC3 2.0, 224 kbps [Английский - комментарии #1]
Аудио 5: AC3 2.0, 224 kbps [Английский - комментарии #2]

MediaInfo...

Полное имя : D:\007.Координаты.«Скайфолл»-Skyfall.(2012).[1080p].BDRip.mkv
Формат : Matroska
Версия формата : Version 2
Размер файла : 18,0 Гбайт
Продолжительность : 2 ч. 23 м.
Общий поток : 18,0 Мбит/сек
Дата кодирования : UTC 2013-02-02 14:06:34
Программа кодирования : mkvmerge v5.7.0 ('The Whirlwind') built on Aug 7 2012 14:11:40
Библиотека кодирования : libebml v1.2.3 + libmatroska v1.3.0
Видео
Идентификатор : 1
Формат : AVC
Формат/Информация : Advanced Video Codec
Профиль формата : [url=mailto:[email protected]][email protected][/url]
Параметр CABAC формата : Да
Параметр ReFrames формата : 5 кадров
Идентификатор кодека : V_MPEG4/ISO/AVC
Продолжительность : 2 ч. 23 м.
Битрейт : 14,5 Мбит/сек
Ширина : 1920 пикселей
Высота : 800 пикселей
Соотношение сторон : 2,40:1
Режим частоты кадров : Постоянный
Частота кадров : 23,976 кадра/сек
Цветовое пространство : YUV
Субдискретизация насыщенности : 4:2:0
Битовая глубина : 8 бит
Тип развёртки : Прогрессивная
Бит/(Пиксели*Кадры) : 0.393
Размер потока : 14,5 Гбайт (80%)
Библиотека кодирования : x264 core 129 r2245kMod bc13772
Настройки программы : cabac=1 / ref=5 / deblock=1:-3:-3 / analyse=0x3:0x113 / me=umh / subme=11 / psy=1 / fade_compensate=0.00 / psy_rd=1.05:0.00 / mixed_ref=1 / me_range=32 / chroma_me=1 / trellis=2 / 8x8dct=1 / cqm=0 / deadzone=21,11 / fast_pskip=0 / chroma_qp_offset=-2 / threads=12 / lookahead_threads=2 / sliced_threads=0 / nr=0 / decimate=1 / interlaced=0 / bluray_compat=0 / constrained_intra=0 / bframes=9 / b_pyramid=2 / b_adapt=2 / b_bias=0 / direct=3 / weightb=1 / open_gop=0 / weightp=2 / keyint=250 / keyint_min=23 / scenecut=40 / intra_refresh=0 / rc_lookahead=192 / rc=crf / mbtree=0 / crf=16.5000 / qcomp=0.70 / qpmin=0 / qpmax=69 / qpstep=4 / vbv_maxrate=50000 / vbv_bufsize=62500 / crf_max=0.0 / nal_hrd=none / ip_ratio=1.30 / pb_ratio=1.20 / aq=1:0.80
Язык : English
Default : Да
Forced : Нет
Аудио #1
Идентификатор : 2
Формат : DTS
Формат/Информация : Digital Theater Systems
Идентификатор кодека : A_DTS
Продолжительность : 2 ч. 23 м.
Вид битрейта : Постоянный
Битрейт : 755 Кбит/сек
Каналы : 6 каналов
Расположение каналов : Front: L C R, Side: L R, LFE
Частота : 48,0 КГц
Битовая глубина : 24 бит
Метод сжатия : С потерями
Размер потока : 773 Мбайт (4%)
Заголовок : DTS 5.1 / 768 kbps
Язык : Russian
Default : Да
Forced : Нет
Аудио #2
Идентификатор : 3
Формат : AC-3
Формат/Информация : Audio Coding 3
Расширение режима : CM (complete main)
Параметр Endianness формата : Big
Идентификатор кодека : A_AC3
Продолжительность : 2 ч. 23 м.
Вид битрейта : Постоянный
Битрейт : 448 Кбит/сек
Каналы : 6 каналов
Расположение каналов : Front: L C R, Side: L R, LFE
Частота : 48,0 КГц
Битовая глубина : 16 бит
Метод сжатия : С потерями
Размер потока : 459 Мбайт (2%)
Заголовок : AC3 5.1 / 448 kbps
Язык : Ukrainian
Default : Нет
Forced : Нет
Аудио #3
Идентификатор : 4
Формат : DTS
Формат/Информация : Digital Theater Systems
Идентификатор кодека : A_DTS
Продолжительность : 2 ч. 23 м.
Вид битрейта : Постоянный
Битрейт : 1510 Кбит/сек
Каналы : 6 каналов
Расположение каналов : Front: L C R, Side: L R, LFE
Частота : 48,0 КГц
Битовая глубина : 24 бит
Метод сжатия : С потерями
Размер потока : 1,51 Гбайт (8%)
Заголовок : DTS 5.1 / 1510 kbps
Язык : English
Default : Нет
Forced : Нет
Аудио #4
Идентификатор : 5
Формат : AC-3
Формат/Информация : Audio Coding 3
Расширение режима : CM (complete main)
Параметр Endianness формата : Big
Идентификатор кодека : A_AC3
Продолжительность : 2 ч. 23 м.
Вид битрейта : Постоянный
Битрейт : 224 Кбит/сек
Каналы : 2 канала
Расположение каналов : Front: L R
Частота : 48,0 КГц
Битовая глубина : 16 бит
Метод сжатия : С потерями
Размер потока : 229 Мбайт (1%)
Заголовок : Commentary Sam Mendes
Язык : English
Default : Нет
Forced : Нет
Аудио #5
Идентификатор : 6
Формат : AC-3
Формат/Информация : Audio Coding 3
Расширение режима : CM (complete main)
Параметр Endianness формата : Big
Идентификатор кодека : A_AC3
Продолжительность : 2 ч. 23 м.
Вид битрейта : Постоянный
Битрейт : 224 Кбит/сек
Каналы : 2 канала
Расположение каналов : Front: L R
Частота : 48,0 КГц
Битовая глубина : 16 бит
Метод сжатия : С потерями
Размер потока : 229 Мбайт (1%)
Заголовок : Commentary Dennis Gassner
Язык : English
Default : Нет
Forced : Нет
Текст #1
Идентификатор : 7
Формат : UTF-8
Идентификатор кодека : S_TEXT/UTF8
Идентификатор кодека/Информация : UTF-8 Plain Text
Заголовок : Forced
Язык : Russian
Default : Да
Forced : Нет
Текст #2
Идентификатор : 8
Формат : UTF-8
Идентификатор кодека : S_TEXT/UTF8
Идентификатор кодека/Информация : UTF-8 Plain Text
Заголовок : Full
Язык : Russian
Default : Нет
Forced : Нет
Текст #3
Идентификатор : 9
Формат : UTF-8
Идентификатор кодека : S_TEXT/UTF8
Идентификатор кодека/Информация : UTF-8 Plain Text
Заголовок : Commentary
Язык : Russian
Default : Нет
Forced : Нет
Текст #4
Идентификатор : 10
Формат : UTF-8
Идентификатор кодека : S_TEXT/UTF8
Идентификатор кодека/Информация : UTF-8 Plain Text
Заголовок : Commentary Sam Mendes
Язык : Russian
Default : Нет
Forced : Нет
Текст #5
Идентификатор : 11
Формат : UTF-8
Идентификатор кодека : S_TEXT/UTF8
Идентификатор кодека/Информация : UTF-8 Plain Text
Заголовок : Forced
Язык : Ukrainian
Default : Нет
Forced : Нет
Текст #6
Идентификатор : 12
Формат : UTF-8
Идентификатор кодека : S_TEXT/UTF8
Идентификатор кодека/Информация : UTF-8 Plain Text
Язык : English
Default : Нет
Forced : Нет
Меню
00:00:00.000 : en:Chapter 01
00:04:28.476 : en:Chapter 02
00:07:32.452 : en:Chapter 03
00:12:47.391 : en:Chapter 04
00:16:47.464 : en:Chapter 05
00:21:37.337 : en:Chapter 06
00:25:00.290 : en:Chapter 07
00:29:25.221 : en:Chapter 08
00:35:06.145 : en:Chapter 09
00:38:27.763 : en:Chapter 10
00:41:24.440 : en:Chapter 11
00:46:22.905 : en:Chapter 12
00:50:48.628 : en:Chapter 13
00:54:53.290 : en:Chapter 14
00:59:38.741 : en:Chapter 15
01:05:14.243 : en:Chapter 16
01:10:16.670 : en:Chapter 17
01:17:09.750 : en:Chapter 18
01:20:55.058 : en:Chapter 19
01:26:10.373 : en:Chapter 20
01:31:49.754 : en:Chapter 21
01:37:04.527 : en:Chapter 22
01:40:49.084 : en:Chapter 23
01:43:45.969 : en:Chapter 24
01:45:54.723 : en:Chapter 25
01:52:10.598 : en:Chapter 26
01:54:45.795 : en:Chapter 27
01:58:13.044 : en:Chapter 28
02:02:49.111 : en:Chapter 29
02:09:38.645 : en:Chapter 30
02:14:49.623 : en:Chapter 31
02:17:46.424 : en:Chapter 32
Скриншоты:
       
       
Other forum [Profile] [PM]
Display posts from previous:    
Reply to topic

The time now is: Today 10:14

All times are GMT + 3 Hours



You cannot post new topics in this forum
You cannot reply to topics in this forum
You cannot edit your posts in this forum
You cannot delete your posts in this forum
You cannot vote in polls in this forum
You cannot attach files in this forum
You cannot download files in this forum