Today is a free download without charge Download

Тайны института благородных девиц / Серии: 21 из 220 (Сергей Данелян, Сахат Дурсунов) [2012-2013, Драма, DVB]

Reply to topic
 
Author
Message

Omen ®

Longevity: 9 years 1 month

Posts: 181086

Торрент-статистика

Post 11-Feb-2013 21:44

[Quote]

Тайны института благородных девиц
Год выпуска: 2012-2013
Производство: Россия, Студия "Гармония"
Жанр: Драма
Продолжительность: ~ 00:44:30 / серия
Субтитры: Нет
Режиссёр: Сергей Данелян, Сахат Дурсунов
В ролях: Алиса Сапегина, Дарья Егорова, Алина Кизиярова, Людмила Кожевникова, Ирэна Морозова, Сергей Астахов, Елена Дубровская, Александр Корженков, Ирина Линдт, Алена Созинова и другие.
Описание: Август 1880 года. В этот вечер об учебе никто не помышляет. Лиза решилась на побег со своим возлюбленным, поручиком Орловым. Они планируют тайно обвенчаться, а затем уехать в Европу. Лизе жаль дядю, начальницу и подруг, но она влюблена и не в силах противиться чувству. После ухода Лизы девочки находят записку, в которой говорится, что венчание состоится в церкви на Рязанском тракте. Полина в ужасе — по этой дороге она ездит в имение и точно знает, что никакой церкви там нет. Девочкам ясно — их подругу обманули, похитили! Благодаря вмешательству новой начальницы института, графини Воронцовой, и ее мужа, Лизе удается сохранить честь, а возможно, и жизнь. Но еще очень не скоро Лиза поймет, что Орлов не достоин ее любви.
За этой историей, как и за многими другими, гораздо более страшными, — от уличных убийств до разорений крупных капиталов и пропажи произведений искусств, — стоит могущественный таинственный злодей, называющий себя Адмиралом. Это король преступного мира. Его влияние огромно, а настоящего имени никто не знает, и лица никто не видел.
Все раздачи сериала: http:///*spam*//forum/search.php?nm=%D2%E0%E9%...+%E4%E5%E2%E8%F6
Сэмпл: http://multi-up.com/816683
Доп. информация: Релиз -

Рип чистый. Без посторонних надписей. Выкладывается как есть.
Качество: DVB
Формат: MPG
Видео кодек: MPG2
Аудио кодек: MP2
Видео: 720x576 @ 768x576 (4:3) 25.00fps 5 017 Kbps, 0.484 bit/pixel
Аудио: MPEG Audio 48000Hz stereo 192 Кбит/сек

MI

GeneralID : 16 (0x10)Complete name : G:\ВЫКЛАДКА\DVB\Сериалы\Тайны института благородных девиц (21-40 серии) (2012, Сериал, Драма) (MYDIMKA)\21 серия.mpgFormat : MPEG-TSFile size : 1.75 GiBDuration : 44mn 13sOverall bit rate mode : VariableOverall bit rate : 5 649 Kbps
VideoID : 69 (0x45)Menu ID : 1 (0x1)Format : MPEG VideoFormat version : Version 2Format profile : [email protected] settings, BVOP : YesFormat settings, Matrix : CustomFormat settings, GOP : VariableCodec ID : 2Duration : 44mn 13sBit rate mode : VariableBit rate : 5 176 KbpsMaximum bit rate : 15.0 MbpsWidth : 720 pixelsHeight : 576 pixelsDisplay aspect ratio : 4:3Frame rate : 25.000 fpsStandard : PALColor space : YUVChroma subsampling : 4:2:0Bit depth : 8 bitsScan type : InterlacedScan order : Top Field FirstCompression mode : LossyBits/(Pixel*Frame) : 0.499Stream size : 1.60 GiB (92%)Alignment : (c) 1998-2012 Womble Multimedia, Inc. / MPEG Video Wizard DVD 5.0.1.100 (03/2011) / Aug 9 2012Title : (c) 1998-2012 Womble Multimedia, Inc. / MPEG Video Wizard DVD 5.0.1.100 (03/2011) / Aug 9 2012Writing library : (c) 1998-2012 Womble Multimedia, Inc. / MPEG Video Wizard DVD 5.0.1.100 (03/2011) / Aug 9 2012
AudioID : 68 (0x44)Menu ID : 1 (0x1)Format : MPEG AudioFormat version : Version 1Format profile : Layer 2Codec ID : 3Duration : 44mn 13sBit rate mode : ConstantBit rate : 192 KbpsChannel(s) : 2 channelsSampling rate : 48.0 KHzCompression mode : LossyStream size : 60.7 MiB (3%)

Скриншоты


Внимание! Раздача ведётся путём добавления новых выпусков

Внимание! Раздача ведётся путём добавления новых выпусков; при каждом добавлении создётся новый торрент. Чтобы начать докачку нового выпуска, пользователям необходимо сделать следующее:
(1) остановить скачивание,
(2) удалить старый торрент у себя из клиента (старые выпуски удалять не надо),
(3) скачать новый торрент и запустить его у себя в клиенте вместо старого, при этом указать клиенту путь в старую папку куда и должно происходить скачивание новых выпусков.
Ваш клиент при этом должен произвести хеширование (проверку) старой папки (если не производит сам - помогите ему сделать это), и будет докачивать только те выпуски которых у вас ещё нет. Старые выпуски при этом не удаляются, а продолжают раздаваться!
Eсли вы уже удалили старые выпуски, то предотвратить повторную закачку старых выпусков можно, отжав галочку в соответсвующих местах при запуске нового торрента. По возможности, желательно не удалять старые выпуски как можно дольше чтобы релизёр не столько продолжал раздавать старые выпуски, а смог сконцентрироваться на новых.
Other forum [Profile] [PM]
Similar theme
Forum Topic Author Torrent Replies Last Post
./templates/default/images/folder_dl.gif Отечественные cериалы Тайный город / Сезон: 1 / Серии: 1-8 из 8 (Александр Мохов) [2014 г., фэнтези,, DVDRip] Omen
1 | 0

0 | 1122

6

2014-09-30 11:00
Omen Latest
./templates/default/images/folder_dl.gif Приключения и квесты Secrets of the Dark: The Flower of Shadow Collector\'s Edition / Тайны Тьмы: Цветок Теней. Коллекционное издание [P] [RUS / ENG] (2014) Omen
1 | 0

0 | 2226

23

2015-06-11 12:04
Omen Latest
Display posts from previous:    
Reply to topic

The time now is: Today 05:18

All times are GMT + 3 Hours



You cannot post new topics in this forum
You cannot reply to topics in this forum
You cannot edit your posts in this forum
You cannot delete your posts in this forum
You cannot vote in polls in this forum
You cannot attach files in this forum
You cannot download files in this forum