Today is a free download without charge Download

Морские дьяволы. Смерч. Судьбы. / Серии: 1 из 7 (Алексей Гусев, Сергей Васильев, Станислав Дремов) [2013, приключения, SATRip]

Reply to topic
 
Author
Message

Omen ®

Longevity: 9 years 1 month

Posts: 181086

Торрент-статистика

Post 11-Feb-2013 21:44

[Quote]

Морские дьяволы. Смерч. Судьбы.
Год выпуска: 2013
Производство: Телекомпания НТВ, "Гамма-продакшн"
Жанр: приключения
Продолжительность: 00:45:00
Субтитры: Нет--Режиссёр: Алексей Гусев, Сергей Васильев, Станислав Дремов--В ролях: Олег Чернов, Дарья Юргенс, Антон Гуляев, Владимир Ярош, Дарья Циберкина, Игорь Григорьев, Михаил Елисеев, Анна Пескова, Антон Пулит, Анатолий Журавлёв, Юрий Кузнецов, Константин Воробьёв, Виталий Кравченко, Руслан Лукьянов, Артур Федынко, Дмитрий Быковский-Ромашов, Михаил Сидаш, Сергей Шкарбан, Алексей Ревякин, Юрий Батурин, Дмитрий Лебедев, Оксана Скакун, Алексей Величко, Руслан Кацагаджиев, Олег Панин, Дмитрий Кочкин, Арсений Бойко, Алексей Симонов, Сергей Маркеев, Олег Малышев, Павел Миронов, Олег Морозов, Константин Клюквин, Юрий Елагин, Александр Петров--Описание: «Смерчи» вновь действуют, и вновь – по одному. Новые отдельные фильмы о жизни героев – Бати, Багиры, Кота, Бизона, Физика, Муры и Пригова, в которых каждый отвечает сам за себя – в отпуске, на специальном задании или под прикрытием – словом тогда, когда коллег по Смерчу рядом нет, и надеяться, кроме самих себя, не на кого.-
-
Сэмпл: http://sendfile.su/760289
Качество: SATRip
Формат: AVI
Видео кодек: XviD
Аудио кодек: MP3
Видео: MPEG4, XviD, 704x400 (16/9), 25.000 fps, 1 563 Kbps (0.222 bit/pixel)
Аудио: MP3, 48.0 KHz, 2 ch, 128 Kbps, CBR

Спасибо kostik184 за предоставленный DVB.
Реклама отсутствует!

MI

General
Complete name : I:\ЗАКАЧКИ\Морские дьяволы. Смерч. Судьбы\Морские дьяволы. Смерч. Судьбы.01.avi
Format : AVI
Format/Info : Audio Video Interleave
File size : 1.07 GiB
Duration : 1h 30mn
Overall bit rate : 1 700 Kbps
Writing application : VirtualDubMod 1.5.10.3 | www.virtualdub-fr.org || (build 2550/release)
Writing library : VirtualDubMod build 2550/release
Video
ID : 0
Format : MPEG-4 Visual
Format profile : Advanced [email protected]
Format settings, BVOP : 1
Format settings, QPel : No
Format settings, GMC : No warppoints
Format settings, Matrix : Custom
Codec ID : XVID
Codec ID/Hint : XviD
Duration : 1h 30mn
Bit rate : 1 563 Kbps
Width : 704 pixels
Height : 400 pixels
Display aspect ratio : 16:9
Frame rate : 25.000 fps
Color space : YUV
Chroma subsampling : 4:2:0
Bit depth : 8 bits
Scan type : Progressive
Compression mode : Lossy
Bits/(Pixel*Frame) : 0.222
Stream size : 1 010 MiB (92%)
Writing library : XviD 63
Audio
ID : 1
Format : MPEG Audio
Format version : Version 1
Format profile : Layer 3
Mode : Joint stereo
Mode extension : MS Stereo
Codec ID : 55
Codec ID/Hint : MP3
Duration : 1h 30mn
Bit rate mode : Constant
Bit rate : 128 Kbps
Channel(s) : 2 channels
Sampling rate : 48.0 KHz
Compression mode : Lossy
Stream size : 82.7 MiB (8%)
Alignment : Aligned on interleaves
Interleave, duration : 40 ms (1.00 video frame)
Interleave, preload duration : 504 ms

Скриншоты



Раздача ведётся путём добавления новых серий

Раздача ведётся путём добавления новых серий; при каждом добавлении создаётся новый торрент. Чтобы начать докачку новой серии, пользователям необходимо сделать следующее:
(1) остановить скачивание,
(2) удалить старый торрент у себя из клиента (старые серии удалять не надо),
(3) скачать новый торрент и запустить его у себя в клиенте вместо старого, при этом указать клиенту путь в старую папку куда и должно происходить скачивание новых серий.
Ваш клиент при этом должен произвести хеширование (проверку) старой папки (если не производит сам - помогите ему сделать это), и будет докачивать только те серии которых у вас ещё нет. Старые серии при этом не удаляются, а продолжают раздаваться!
Eсли вы уже удалили старые серии, то предотвратить повторную закачку старых серий можно, отжав галочку в соответствующих местах при запуске нового торрента. По возможности, желательно не удалять старые серии как можно дольше чтобы релизёр не столько продолжал раздавать старые серии, а смог сконцентрироваться на новых.
Other forum [Profile] [PM]
Display posts from previous:    
Reply to topic

The time now is: Today 22:27

All times are GMT + 3 Hours



You cannot post new topics in this forum
You cannot reply to topics in this forum
You cannot edit your posts in this forum
You cannot delete your posts in this forum
You cannot vote in polls in this forum
You cannot attach files in this forum
You cannot download files in this forum