Сегодня идет свободное скачивание без начисления Download

Кармелюк (1938) TVRip

Ответить на тему
 
Автор
Сообщение

Omen ®

Стаж: 6 лет

Сообщений: 184329

Торрент-статистика

Пост 11-Фев-2013 01:24

[Цитировать]

-Кармелюк (1938) TVRip- Русское название: Кармелюк
Производство: Одесская киностудия
Год выпуска: 1938
Жанр: Драма, Историко-приключенческий
Описание фильма:
Картина рассказывает о борьбе крепостных крестьян и солдат Правобережной Украины, возглавляемых народным героем Кармелюком (Устим Кармалюк, 1787—1835), с гайдуками Подолии и панским игом.Крепостной крестьянин Кармелюк убивает жестокого управляющего своего барина и бежит в леса, становится народным героем и мстителем.
Режиссер: Георгий Тасин
Актеры: Александр Хвыля, Наталия Ужвий, С. Дубровский, П. Радецкий, Евгений Пономаренко, Н. Захаров, Николай Комиссаров, Дмитрий Голубинский, Анна Мещерская, Гнат Юра, Илья Березняк, Л. Меерсон, Владимир Лисовский, В. Поддубный, Дмитрий Милютенко, Терентий Юра
Продолжительность: 01:20:04

Видеокодек: Xvid
Битрейт видео: ~1053 Кбит/сек
Размер кадра: 640x480
Качество видео: TVRip
Аудиокодек: MP3, 1 ch
Битрейт аудио: 96,0 Кбит/сек

MediaInfo:

Общее
Полное имя : G:\!V\!Подгот\Кармелюк\Кармелюк avi\Кармелюк.avi
Формат : AVI
Формат/Информация : Audio Video Interleave
Размер файла : 664 Мбайт
Продолжительность : 1 ч. 20 м.
Общий поток : 1159 Кбит/сек
Название фильма : 1_xvid_mp3
Программа кодирования : VirtualDubMod 1.5.10.2 (build 2542/release)
Библиотека кодирования : VirtualDubMod build 2542/release
Видео
Идентификатор : 0
Формат : MPEG-4 Visual
Профиль формата : [email protected]
Параметр BVOP формата : Нет
Параметр QPel формата : Нет
Параметр GMC формата : Без точки перехода
Параметр матрицы формата : Default (H.263)
Идентификатор кодека : XVID
Идентификатор кодека/Подсказка : XviD
Продолжительность : 1 ч. 20 м.
Битрейт : 1053 Кбит/сек
Ширина : 640 пикселей
Высота : 480 пикселей
Соотношение сторон : 4:3
Частота кадров : 23,976 кадра/сек
Цветовое пространство : YUV
Субдискретизация насыщенности : 4:2:0
Битовая глубина : 8 бит
Тип развёртки : Прогрессивная
Метод сжатия : С потерями
Бит/(Пиксели*Кадры) : 0.143
Размер потока : 603 Мбайт (91%)
Библиотека кодирования : XviD 1.1.2 (UTC 2006-11-01)
Аудио
Идентификатор : 1
Формат : MPEG Audio
Версия формата : Version 1
Профиль формата : Layer 3
Идентификатор кодека : 55
Идентификатор кодека/Подсказка : MP3
Продолжительность : 1 ч. 20 м.
Вид битрейта : Постоянный
Битрейт : 96,0 Кбит/сек
Каналы : 1 канал
Частота : 44,1 КГц
Метод сжатия : С потерями
Задержка видео : 8 мс.
Размер потока : 55,0 Мбайт (8%)
Выравнивание : Разделение по промежуткам
Продолжительность промежутка : 42 мс. (1,00 видеокадр)
Время предзагрузки промежутка : 500 мс.
Библиотека кодирования : LAME3.97ЄЄЄЄ‹j№Џ љ
Скриншоты:
         
         
Вне форума [Профиль] [ЛС]
Показать сообщения:    
Ответить на тему

Текущее время: Сегодня 18:47

Часовой пояс: GMT + 3



Вы не можете начинать темы
Вы не можете отвечать на сообщения
Вы не можете редактировать свои сообщения
Вы не можете удалять свои сообщения
Вы не можете голосовать в опросах
Вы не можете прикреплять файлы к сообщениям
Вы не можете скачивать файлы