Today is a free download without charge Download

Немой / Серии: 1 из 4 (Александр Итыгилов (мл.)) [2012, детектив, SATRip]

Reply to topic
 
Author
Message

Omen ®

Longevity: 9 years

Posts: 181086

Торрент-статистика

Post 10-Feb-2013 23:20

[Quote]

Немой -Год выпуска: 2012
Производство: Прима-Фильм
Жанр: детектив
Продолжительность: 00:45:00
Режиссёр: Александр Итыгилов (мл.)
В ролях: Вячеслав Разбегаев, Леонид Громов, Михаил Тарабукин, Елена Шилова, Георгий Хостикоев, Андрей Саминин, Надежда Борисова, Олег Савкин, Владимир Горянский, Даниил Чернега, Надежда Борисова
Описание: Так сложились обстоятельства, что в морозную зимнюю ночь молодые люди Гоша, Даша и Валерий вынуждены искать спасения от холода. Поскольку у друзей нет другого выхода, они залезают в чужой дом. Здесь они оказываются под дулом ружья странного человека, которого принимают за хозяина дома. Человек молчит, словно немой, и не снимает маску волка с лица. "Хозяин" проявляет терпимость и гостеприимство, он угощает незваных гостей коньяком и чаем, помогает им завести заглохшую машину и вытащить ее из сугроба. Но когда гости засыпают, немой забирает из потайного сейфа крупную сумму денег, снимает со стены самую ценную картину, а сам прячется в потайной комнате.-Доп.информация:
Любая реклама ОТСУТСТВУЕТ!--Сэмпл-Релиз:
Качество: SATRip
Формат: AVI
Видео кодек: XviD
Аудио кодек: MP3
Видео: 720x400 (1.80:1), 25 fps, XviD build 65 ~1421 kbps avg, 0.20 bit/pixel
Аудио: 48 kHz, MPEG Layer 3, 2 ch, ~128.00 kbps avg

MI

ОбщееПолное имя : D:\Раздачи\Немой 2012 SATRip\Немой 01 2012 SATRip.aviФормат : AVIФормат/Информация : Audio Video InterleaveРазмер файла : 500 МбайтПродолжительность : 44 м.Общий поток : 1560 Кбит/секПрограмма кодирования : VirtualDubMod 1.5.10.2 (build 2540/release)Библиотека кодирования : VirtualDubMod build 2540/release
ВидеоИдентификатор : 0Формат : MPEG-4 VisualПрофиль формата : Advanced [email protected]Параметр BVOP формата : 2Параметр QPel формата : НетПараметр GMC формата : Без точки переходаПараметр матрицы формата : Default (MPEG)Идентификатор кодека : XVIDИдентификатор кодека/Подсказка : XviDПродолжительность : 44 м.Битрейт : 1422 Кбит/секШирина : 720 пикселейВысота : 400 пикселейСоотношение сторон : 16:9Частота кадров : 25,000 кадров/секЦветовое пространство : YUVСубдискретизация насыщенности : 4:2:0Битовая глубина : 8 битТип развёртки : ПрогрессивнаяМетод сжатия : С потерямиБит/(Пиксели*Кадры) : 0.197Размер потока : 456 Мбайт (91%)Библиотека кодирования : XviD 65
АудиоИдентификатор : 1Формат : MPEG AudioВерсия формата : Version 1Профиль формата : Layer 3Режим : Joint stereoРасширение режима : MS StereoИдентификатор кодека : 55Идентификатор кодека/Подсказка : MP3Продолжительность : 44 м.Вид битрейта : ПостоянныйБитрейт : 128 Кбит/секКаналы : 2 каналаЧастота : 48,0 КГцМетод сжатия : С потерямиРазмер потока : 41,0 Мбайт (8%)Выравнивание : Соединение по промежуткамПродолжительность промежутка : 40 мс. (1,00 видеокадр)Время предзагрузки промежутка : 504 мс.

Скриншоты

Внимание! Раздача ведётся путём добавления новых серий. Описание обновления торрента:

Внимание! Раздача ведётся путём добавления новых серий; при каждом добавлении создётся новый торрент. Чтобы начать докачку новой серии, пользователям необходимо сделать следующее:
(1) остановить скачивание,
(2) удалить старый торрент у себя из клиента (старые серии удалять не надо),
(3) скачать новый торрент и запустить его у себя в клиенте вместо старого, при этом указать клиенту путь в старую папку куда и должно происходить скачивание новых серий.
Ваш клиент при этом должен произвести хеширование (проверку) старой папки (если не производит сам - помогите ему сделать это), и будет докачивать только те серии которых у вас ещё нет. Старые серии при этом не удаляются, а продолжают раздаваться!
Eсли вы уже удалили старые серии, то предотвратить повторную закачку старых серий можно, отжав галочку в соответсвующих местах при запуске нового торрента. По возможности, желательно не удалять старые серии как можно дольше чтобы релизёр не столько продолжал раздавать старые серии, а смог сконцентрироваться на новых
Other forum [Profile] [PM]
Display posts from previous:    
Reply to topic

The time now is: Today 18:07

All times are GMT + 3 Hours



You cannot post new topics in this forum
You cannot reply to topics in this forum
You cannot edit your posts in this forum
You cannot delete your posts in this forum
You cannot vote in polls in this forum
You cannot attach files in this forum
You cannot download files in this forum