Today is a free download without charge Download

Анна Каренина / Anna Karenina (Джо Райт / Joe Wright) [2012, Великобритания, драма, мелодрама, BDRip 1080p] Dub + Sub Rus + Original Eng

Reply to topic
 
Author
Message

Omen ®

Longevity: 8 years 5 months

Posts: 181087

Торрент-статистика

Post 10-Feb-2013 23:20

[Quote]

Анна Каренина / Anna Karenina Страна: Великобритания
Студия: Universal Pictures
Жанр: драма, мелодрама
Год выпуска: 2012
Продолжительность:02:09:32
Перевод: Профессиональный (дублированный) Blu-ray CEE
Cубтитры: Russian(Forced, Full), English, English(SDH)
Оригинальная аудиодорожка: английский
Режиссер: Джо Райт / Joe Wright
В ролях: Кира Найтли, Джуд Лоу, Аарон Тейлор-Джонсон, Келли Макдоналд, Мэтью Макфейден, Домналл Глисон, Рут Уилсон, Алисия Викандер, Оливия Уильямс, Эмили Уотсон
Описание: Встречая приехавшую из Петербурга мать, молодой блистательный офицер граф Вронский знакомится с женой влиятельного петербургского чиновника Анной Карениной. Огонь страсти вспыхивает мгновенно, но их любовь шокирует высшее общество. В мире, где правят предрассудки и стереотипы, ей придётся сделать поистине непростой выбор между семьёй и всепоглощающей страстью…

Тип релиза: BDRip 1080p[HDMaNiAcS]
Контейнер: MKV
Видео: AVC,1920x804,17900 kbps,23.976 fps
Аудио 1: Russian: 48 kHz, DTS, 3/2 (L,C,R,l,r) + LFE ch, ~768.00 kbps avg
Аудио 2: English: 48 kHz, DTS, 3/2 (L,C,R,l,r) + LFE ch, ~1536.00 kbps |Original|
Чаптеры:есть

MediaInfo

General
Unique ID : 254384230948163275461991033753075288302 (0xBF609EEB320C8EE8ABF50733546D88EE)
Complete name : D:\Рипы\Anna.Karenina.2012.1080p.BluRay.DTS x264-Talian-.mkv
Format : Matroska
Format version : Version 2
File size : 18.2 GiB
Duration : 2h 9mn
Overall bit rate : 20.1 Mbps
Movie name : -Talian-
Encoded date : UTC 2013-02-10 15:47:07
Writing application : mkvmerge v5.7.0 ('The Whirlwind') built on Jul 8 2012 20:08:51
Writing library : libebml v1.2.3 + libmatroska v1.3.0
Video
ID : 1
Format : AVC
Format/Info : Advanced Video Codec
Format profile : [email protected]
Format settings, CABAC : Yes
Format settings, ReFrames : 5 frames
Codec ID : V_MPEG4/ISO/AVC
Duration : 2h 9mn
Bit rate : 17.9 Mbps
Width : 1 920 pixels
Height : 804 pixels
Display aspect ratio : 2.40:1
Frame rate : 23.976 fps
Color space : YUV
Chroma subsampling : 4:2:0
Bit depth : 8 bits
Scan type : Progressive
Bits/(Pixel*Frame) : 0.482
Stream size : 15.8 GiB (87%)
Title : HDMaNiAcS
Writing library : x264 core 129 r2245 bc13772
Encoding settings : cabac=1 / ref=5 / deblock=1:-3:-3 / analyse=0x3:0x113 / me=tesa / subme=11 / psy=1 / psy_rd=1.05:0.00 / mixed_ref=1 / me_range=24 / chroma_me=1 / trellis=2 / 8x8dct=1 / cqm=0 / deadzone=21,11 / fast_pskip=1 / chroma_qp_offset=-2 / threads=12 / lookahead_threads=2 / sliced_threads=0 / nr=0 / decimate=1 / interlaced=0 / bluray_compat=0 / constrained_intra=0 / bframes=8 / b_pyramid=2 / b_adapt=2 / b_bias=0 / direct=3 / weightb=1 / open_gop=0 / weightp=2 / keyint=240 / keyint_min=23 / scenecut=40 / intra_refresh=0 / rc=2pass / mbtree=0 / bitrate=17850 / ratetol=1.0 / qcomp=0.60 / qpmin=10 / qpmax=69 / qpstep=4 / cplxblur=20.0 / qblur=0.5 / ip_ratio=1.40 / pb_ratio=1.30 / aq=2:0.60
Language : English
Default : No
Forced : No
Audio #1
ID : 2
Format : DTS
Format/Info : Digital Theater Systems
Codec ID : A_DTS
Duration : 2h 9mn
Bit rate mode : Constant
Bit rate : 755 Kbps
Channel(s) : 6 channels
Channel positions : Front: L C R, Side: L R, LFE
Sampling rate : 48.0 KHz
Bit depth : 24 bits
Compression mode : Lossy
Stream size : 699 MiB (4%)
Title : DUB- BD CEE
Language : Russian
Default : Yes
Forced : No
Audio #2
ID : 3
Format : DTS
Format/Info : Digital Theater Systems
Codec ID : A_DTS
Duration : 2h 9mn
Bit rate mode : Constant
Bit rate : 1 510 Kbps
Channel(s) : 6 channels
Channel positions : Front: L C R, Side: L R, LFE
Sampling rate : 48.0 KHz
Bit depth : 24 bits
Compression mode : Lossy
Stream size : 1.37 GiB (8%)
Title : Original
Language : English
Default : No
Forced : No
Text #1
ID : 4
Format : UTF-8
Codec ID : S_TEXT/UTF8
Codec ID/Info : UTF-8 Plain Text
Title : Sub-Forced
Language : Russian
Default : Yes
Forced : No
Text #2
ID : 5
Format : UTF-8
Codec ID : S_TEXT/UTF8
Codec ID/Info : UTF-8 Plain Text
Title : Sub-Full
Language : Russian
Default : No
Forced : No
Text #3
ID : 6
Format : UTF-8
Codec ID : S_TEXT/UTF8
Codec ID/Info : UTF-8 Plain Text
Title : Sub
Language : English
Default : No
Forced : No
Text #4
ID : 7
Format : UTF-8
Codec ID : S_TEXT/UTF8
Codec ID/Info : UTF-8 Plain Text
Title : Sub-SDH
Language : English
Default : No
Forced : No
Menu
00:00:00.000 : en:00:00:00.000
00:05:36.294 : en:00:05:36.294
00:11:42.076 : en:00:11:42.076
00:19:59.156 : en:00:19:59.156
00:25:26.900 : en:00:25:26.900
00:32:40.750 : en:00:32:40.750
00:39:52.056 : en:00:39:52.056
00:46:59.107 : en:00:46:59.107
00:54:00.362 : en:00:54:00.362
01:00:36.257 : en:01:00:36.257
01:07:13.529 : en:01:07:13.529
01:14:52.070 : en:01:14:52.070
01:22:30.070 : en:01:22:30.070
01:27:00.548 : en:01:27:00.548
01:31:49.378 : en:01:31:49.378
01:36:12.975 : en:01:36:12.975
01:42:42.906 : en:01:42:42.906
01:47:57.971 : en:01:47:57.971
01:55:04.522 : en:01:55:04.522
02:01:45.923 : en:02:01:45.923


Other forum [Profile] [PM]
Display posts from previous:    
Reply to topic

The time now is: Today 11:15

All times are GMT + 3 Hours



You cannot post new topics in this forum
You cannot reply to topics in this forum
You cannot edit your posts in this forum
You cannot delete your posts in this forum
You cannot vote in polls in this forum
You cannot attach files in this forum
You cannot download files in this forum