Today is a free download without charge Download

Высоцкий. Четыре часа настоящей жизни (2012) [720p] BDRip [1-4 серии из 4]

Reply to topic
 
Author
Message

Omen ®

Longevity: 9 years

Posts: 181086

Торрент-статистика

Post 10-Feb-2013 22:15

[Quote]

-Высоцкий. Четыре часа настоящей жизни (2012) [720p] BDRip- Русское название: Высоцкий. Четыре часа настоящей жизни
Год выпуска: 2012
Производство: Россия
Жанр: Драма, биография
Перевод: Оригинал (Русский)
Субтитры: Отсутствуют
релиз на Blu-Ray: 24 января 2013, «Флагман-Трейд»
релиз на DVD: 26 марта 2013, «Флагман-Трейд
Режиссер: Петр Буслов
Актеры: Оксана Акиньшина, Сергей Безруков, Андрей Смоляков, Иван Ургант, Андрей Панин, Дмитрий Астрахан, Анна Ардова, Владимир Ильин, Максим Леонидов, Сергей Шакуров
Описание фильма:
Фильм рассказывает об одном из наиболее драматичных периодов жизни Владимира Высоцкого. Мы застаем героя на пике известности. В конце 70-х Высоцкий — самый знаменитый человек в СССР, кумир миллионов. Но его силы на исходе. Он измотан, он больше не ощущает свой дар, он не может писать стихи…
Продолжительность: 4 x ~ 00:50:30, (03:23:18)
- -Качество видео: BDRip
Формат: MKV
Видеокодек: MPEG-4 AVC/H.264
Аудиокодек: AC-3
Bидео: 1280x528 at 23.976 fps, ~4422 Kb/s
Аудио# 1: Русский: AC-3, 5.1 ch, 640 kb/s

Важно!!!:

Раздача ведется одним файлом!!!

MediaInfo:

Формат : Matroska
Версия формата : Version 2
Размер файла : 7,19 Гбайт
Продолжительность : 3 ч. 23 м.
Общий поток : 5064 Кбит/сек
Название фильма : UNIONGANG
Дата кодирования : UTC 2013-02-09 17:47:24
Программа кодирования : mkvmerge v5.3.0 ('I could have danced') built on Feb 9 2012 10:38:07
Библиотека кодирования : libebml v1.2.3 + libmatroska v1.3.0
Видео
Идентификатор : 1
Формат : AVC
Формат/Информация : Advanced Video Codec
Профиль формата : [url=mailto:[email protected]][email protected][/url]
Параметр CABAC формата : Да
Параметр ReFrames формата : 9 кадров
Идентификатор кодека : V_MPEG4/ISO/AVC
Продолжительность : 3 ч. 23 м.
Битрейт : 4422 Кбит/сек
Ширина : 1280 пикселей
Высота : 528 пикселей
Соотношение сторон : 2,40:1
Режим частоты кадров : Постоянный
Частота кадров : 24,000 кадра/сек
Цветовое пространство : YUV
Субдискретизация насыщенности : 4:2:0
Битовая глубина : 8 бит
Тип развёртки : Прогрессивная
Бит/(Пиксели*Кадры) : 0.273
Размер потока : 6,14 Гбайт (85%)
Заголовок : Vysockij.Chetyre.chasa.nastojashhej.zhizni.2012.O.BDRip.720p.UNIONGANG
Библиотека кодирования : x264 core 119 r2106 07efeb4
Настройки программы : cabac=1 / ref=9 / deblock=1:-3:-3 / analyse=0x3:0x113 / me=umh / subme=11 / psy=1 / psy_rd=1.10:1.00 / mixed_ref=1 / me_range=32 / chroma_me=1 / trellis=2 / 8x8dct=1 / cqm=0 / deadzone=21,11 / fast_pskip=0 / chroma_qp_offset=-4 / threads=6 / sliced_threads=0 / nr=0 / decimate=1 / interlaced=0 / bluray_compat=0 / constrained_intra=0 / bframes=7 / b_pyramid=2 / b_adapt=2 / b_bias=0 / direct=3 / weightb=1 / open_gop=0 / weightp=2 / keyint=250 / keyint_min=23 / scenecut=40 / intra_refresh=0 / rc=2pass / mbtree=0 / bitrate=4422 / ratetol=1.0 / qcomp=0.60 / qpmin=0 / qpmax=69 / qpstep=4 / cplxblur=20.0 / qblur=0.5 / ip_ratio=1.40 / pb_ratio=1.30 / aq=1:1.00
Язык : Russian
Default : Да
Forced : Нет
Аудио
Идентификатор : 2
Формат : AC-3
Формат/Информация : Audio Coding 3
Расширение режима : CM (complete main)
Параметр Endianness формата : Big
Идентификатор кодека : A_AC3
Продолжительность : 3 ч. 23 м.
Вид битрейта : Постоянный
Битрейт : 640 Кбит/сек
Каналы : 6 каналов
Расположение каналов : Front: L C R, Side: L R, LFE
Частота : 48,0 КГц
Битовая глубина : 16 бит
Метод сжатия : С потерями
Размер потока : 931 Мбайт (13%)
Язык : Russian
Default : Да
Forced : Нет
Меню
00:00:00.000 : en:00:00:00.000
00:18:24.083 : en:00:18:24.083
00:32:24.750 : en:00:32:24.750
00:50:15.750 : en:00:50:15.750
01:08:39.667 : en:01:08:39.667
01:25:15.667 : en:01:25:15.667
01:42:59.167 : en:01:42:59.167
02:00:17.000 : en:02:00:17.000
02:17:53.000 : en:02:17:53.000
02:33:00.542 : en:02:33:00.542
02:51:10.625 : en:02:51:10.625
03:04:58.625 : en:03:04:58.625
03:21:55.375 : en:03:21:55.375
Скриншоты:

       
       
Other forum [Profile] [PM]
Similar theme
Forum Topic Author Torrent Replies Last Post
./templates/default/images/folder_dl.gif Кулинария Ю.А. Высоцкая | Быстрые завтраки (2012) [PDF] }{@R0N
1 | 0

0 | 1700

4

2018-02-11 21:01
}{@R0N Latest
Display posts from previous:    
Reply to topic

The time now is: Today 18:36

All times are GMT + 3 Hours



You cannot post new topics in this forum
You cannot reply to topics in this forum
You cannot edit your posts in this forum
You cannot delete your posts in this forum
You cannot vote in polls in this forum
You cannot attach files in this forum
You cannot download files in this forum