Today is a free download without charge Download

Высоцкий. Четыре часа настоящей жизни (2012) [H.264] BDRip [1-4 серии из 4]

Reply to topic
 
Author
Message

Omen ®

Longevity: 9 years

Posts: 181086

Торрент-статистика

Post 10-Feb-2013 22:15

[Quote]

-Высоцкий. Четыре часа настоящей жизни (2012) [H.264] BDRip [1-4 серии из 4]- Оригинальное название: Высоцкий. Четыре часа настоящей жизни
Год выпуска: 2012
Производство: Россия
Жанр: Драма, биография
Перевод: Оригинал (Русский)
Субтитры: Отсутствуют
Режиссер: Петр Буслов
Актеры: Оксана Акиньшина, Сергей Безруков, Андрей Смоляков, Иван Ургант, Андрей Панин, Дмитрий Астрахан, Анна Ардова, Владимир Ильин, Максим Леонидов, Сергей Шакуров
Описание фильма:
Фильм рассказывает об одном из наиболее драматичных периодов жизни Владимира Высоцкого. Мы застаем героя на пике известности. В конце 70-х Высоцкий — самый знаменитый человек в СССР, кумир миллионов. Но его силы на исходе. Он измотан, он больше не ощущает свой дар, он не может писать стихи…-
Дата выхода Blu-Ray релиза: 24 января 2013, «Флагман-Трейд»
Дата выхода DVD релиза: 26 марта 2013, «Флагман-Трейд»-Продолжительность: 03:23:17
Качество видео: BDRip (AVC)
Видеокодек: MPEG4 AVC
Битрейт видео: 2620 Кбит/сек
Размер кадра: 1024х424
Аудио : Русский, АС3, 6 ch, 448 Кбит/с

MediaInfo

Код:
Общее
Уникальный идентификатор                 : 180410823194482503866369133909404852442 (0x87B9DC54BFF802B996AD6FC31748A0DA)
Полное имя                               : E:\Раздачи\Видео\Высоцкий. Четыре часа настоящей жизни (2012) [H.264] BDRip.mkv
Формат                                   : Matroska
Версия формата                           : Version 1
Размер файла                             : 4,36 Гбайт
Продолжительность                        : 3 ч. 23 м.
Общий поток                              : 3071 Кбит/сек
Дата кодирования                         : UTC 2013-02-09 21:12:21
Программа кодирования                    : mkvmerge v2.1.0 ('Another Place To Fall') built on Aug 19 2007 13:40:07
Библиотека кодирования                   : libebml v0.7.7 + libmatroska v0.8.1
Видео
Идентификатор                            : 1
Формат                                   : AVC
Формат/Информация                        : Advanced Video Codec
Профиль формата                          : [url=mailto:[email protected]][email protected][/url]
Параметр CABAC формата                   : Да
Параметр ReFrames формата                : 8 кадров
Идентификатор кодека                     : V_MPEG4/ISO/AVC
Продолжительность                        : 3 ч. 23 м.
Битрейт                                  : 2620 Кбит/сек
Ширина                                   : 1024 пикселя
Высота                                   : 424 пикселя
Соотношение сторон                       : 2,40:1
Частота кадров                           : 24,000 кадра/сек
Цветовое пространство                    : YUV
Субдискретизация насыщенности            : 4:2:0
Битовая глубина                          : 8 бит
Тип развёртки                            : Прогрессивная
Бит/(Пиксели*Кадры)                      : 0.251
Размер потока                            : 3,64 Гбайт (83%)
Библиотека кодирования                   : x264 core 115 r1937 aa21558
Настройки программы                      : cabac=1 / ref=8 / deblock=1:-2:-2 / analyse=0x3:0x113 / me=umh / subme=8 / psy=1 / psy_rd=1.00:0.10 / mixed_ref=0 / me_range=32 / chroma_me=1 / trellis=2 / 8x8dct=1 / cqm=0 / deadzone=21,11 / fast_pskip=1 / chroma_qp_offset=-3 / threads=6 / sliced_threads=0 / nr=0 / decimate=1 / interlaced=0 / bluray_compat=0 / constrained_intra=0 / bframes=8 / b_pyramid=2 / b_adapt=2 / b_bias=0 / direct=3 / weightb=1 / open_gop=0 / weightp=0 / keyint=240 / keyint_min=23 / scenecut=40 / intra_refresh=0 / rc_lookahead=30 / rc=2pass / mbtree=1 / bitrate=2620 / ratetol=1.0 / qcomp=0.60 / qpmin=15 / qpmax=47 / qpstep=3 / cplxblur=20.0 / qblur=0.5 / ip_ratio=1.40 / aq=1:1.10
Язык                                     : English
Default                                  : Да
Forced                                   : Нет
Аудио
Идентификатор                            : 2
Формат                                   : AC-3
Формат/Информация                        : Audio Coding 3
Расширение режима                        : CM (complete main)
Параметр Endianness формата              : Big
Идентификатор кодека                     : A_AC3
Продолжительность                        : 3 ч. 23 м.
Вид битрейта                             : Постоянный
Битрейт                                  : 448 Кбит/сек
Каналы                                   : 6 каналов
Расположение каналов                     : Front: L C R, Side: L R, LFE
Частота                                  : 48,0 КГц
Битовая глубина                          : 16 бит
Метод сжатия                             : С потерями
Размер потока                            : 651 Мбайт (15%)
Default                                  : Да
Forced                                   : Нет
Скриншоты:
         
         -Время раздачи: 9.00 - 23.00 (по мере возможности...)
Other forum [Profile] [PM]
Display posts from previous:    
Reply to topic

The time now is: Today 17:51

All times are GMT + 3 Hours



You cannot post new topics in this forum
You cannot reply to topics in this forum
You cannot edit your posts in this forum
You cannot delete your posts in this forum
You cannot vote in polls in this forum
You cannot attach files in this forum
You cannot download files in this forum