Today is a free download without charge Download

Угнать за 60 секунд / Gone in 60 Seconds (1974) [H.264] DVDRip

Reply to topic
 
Author
Message

Omen ®

Longevity: 8 years 11 months

Posts: 181086

Торрент-статистика

Post 10-Feb-2013 22:15

[Quote]

-Угнать за 60 секунд / Gone in 60 Seconds (1974) DVDRip-«Let the wrecking begin»- Русское название: Угнать за 60 секунд
Оригинальное название: Gone in 60 Seconds
Год выпуска: 1974
Жанр: Боевик, Драма, Криминал-Описание фильма:
Его работа — кража автомобилей. Его последний контракт: угнать 40 машин за одну неделю. Но полицейские не желают мириться с ролью статистов — захватывающая гонка начинается!-Режиссер: Г.Б. Галицки
Продюсер: Г.Б. Галицки
Актеры: Г.Б. Галицки, Мэрион Бусиа, Jerry Daugirda, Джеймс Макинтайр, Джордж Коул, Рональд Галицки, Батч Стоктон, Фил Вудс-Продолжительность: 01:37:44
Перевод: Двуголосый закадровый, профессиональный- -Дата мировой премьеры: 28 июля 1974
Дата выхода DVD релиза: 22 июня 2006, «Союз-Видео»-Видеокодек: MPEG-4 AVC/H.264
Битрейт видео: ~1040 kbps
Размер кадра: 720x384
Качество видео: DVDRip
Аудио#1: 48 kHz, AC3, 6 ch, 448.00 kbps [русский]
Аудио#2: 48 kHz, AC3, 6 ch, 448.00 kbps [английский]

MediaInfo

Общее
Уникальный идентификатор : 200616964340899890971241297864369135286 (0x96ED6C017B827B55829F927E76545EB6)
Полное имя : D:\Торрент раздача\Угнать за 60 секунд [Gone in 60 Seconds] 1974.mkv
Формат : Matroska
Версия формата : Version 2
Размер файла : 1,45 Гбайт
Продолжительность : 1 ч. 37 м.
Общий поток : 2130 Кбит/сек
Дата кодирования : UTC 2011-02-11 18:58:09
Программа кодирования : mkvmerge v2.9.0 ('Moanin'') built on May 22 2009 17:46:31
Библиотека кодирования : libebml v0.7.7 + libmatroska v0.8.1
Видео
Идентификатор : 1
Формат : AVC
Формат/Информация : Advanced Video Codec
Профиль формата : [url=mailto:[email protected]][email protected][/url]
Параметр CABAC формата : Да
Параметр ReFrames формата : 4 кадра
Идентификатор кодека : V_MPEG4/ISO/AVC
Продолжительность : 1 ч. 37 м.
Битрейт : 1040 Кбит/сек
Ширина : 720 пикселей
Высота : 384 пикселя
Соотношение сторон : 1,85:1
Режим частоты кадров : Постоянный
Частота кадров : 23,976 кадра/сек
Цветовое пространство : YUV
Субдискретизация насыщенности : 4:2:0
Битовая глубина : 8 бит
Тип развёртки : Прогрессивная
Бит/(Пиксели*Кадры) : 0.157
Размер потока : 699 Мбайт (47%)
Библиотека кодирования : x264 core 112
Настройки программы : cabac=1 / ref=2 / deblock=1:0:0 / analyse=0x1:0x111 / me=hex / subme=6 / psy=1 / psy_rd=1.00:0.00 / mixed_ref=0 / me_range=16 / chroma_me=1 / trellis=0 / 8x8dct=0 / cqm=0 / deadzone=21,11 / fast_pskip=1 / chroma_qp_offset=-2 / threads=3 / sliced_threads=0 / nr=0 / decimate=1 / interlaced=0 / constrained_intra=0 / bframes=2 / b_pyramid=2 / b_adapt=1 / b_bias=0 / direct=1 / weightb=0 / open_gop=0 / weightp=2 / keyint=240 / keyint_min=23 / scenecut=40 / intra_refresh=0 / rc_lookahead=40 / rc=2pass / mbtree=1 / bitrate=1040 / ratetol=1.0 / qcomp=0.60 / qpmin=3 / qpmax=51 / qpstep=4 / cplxblur=20.0 / qblur=0.5 / ip_ratio=1.40 / aq=1:1.00
Язык : English
Default : Да
Forced : Нет
Основные цвета : BT.601 NTSC
Характеристики трансфера : BT.709
Коэффициенты матрицы : BT.601
Аудио #1
Идентификатор : 2
Формат : AC-3
Формат/Информация : Audio Coding 3
Расширение режима : CM (complete main)
Параметр Endianness формата : Big
Идентификатор кодека : A_AC3
Продолжительность : 1 ч. 37 м.
Вид битрейта : Постоянный
Битрейт : 448 Кбит/сек
Каналы : 6 каналов
Расположение каналов : Front: L C R, Side: L R, LFE
Частота : 48,0 КГц
Битовая глубина : 16 бит
Метод сжатия : С потерями
Размер потока : 313 Мбайт (21%)
Язык : Russian
Default : Да
Forced : Нет
Аудио #2
Идентификатор : 3
Формат : AC-3
Формат/Информация : Audio Coding 3
Расширение режима : CM (complete main)
Параметр Endianness формата : Big
Идентификатор кодека : A_AC3
Продолжительность : 1 ч. 37 м.
Вид битрейта : Постоянный
Битрейт : 640 Кбит/сек
Каналы : 6 каналов
Расположение каналов : Front: L C R, Side: L R, LFE
Частота : 48,0 КГц
Битовая глубина : 16 бит
Метод сжатия : С потерями
Размер потока : 447 Мбайт (30%)
Язык : English
Default : Нет
Forced : Нет
Скриншоты:
                   
Время раздачи: 24/7
Other forum [Profile] [PM]
Display posts from previous:    
Reply to topic

The time now is: Today 14:37

All times are GMT + 3 Hours



You cannot post new topics in this forum
You cannot reply to topics in this forum
You cannot edit your posts in this forum
You cannot delete your posts in this forum
You cannot vote in polls in this forum
You cannot attach files in this forum
You cannot download files in this forum