Today is a free download without charge Download

Голодные игры / The Hunger Games (Гэри Росс) (2012, Фантастика, боевик, приключения) DVD5 сжатый | Лицензия

Reply to topic
 
Author
Message

Omen ®

Longevity: 8 years 5 months

Posts: 181087

Торрент-статистика

Post 10-Feb-2013 20:17

[Quote]

Голодные игры / The Hunger Games
«Да пребудет с вами удача»
Название: Голодные игры
Оригинальное название: The Hunger Games
Год выпуска: 2012
Страна: США
Жанр: фантастика, боевик, приключения
Продолжительность: 02:16:39
Перевод: Профессиональный (полное дублирование)-Режиссер: Гэри Росс
Сценарий: Сюзанн Коллинз, Гэри Росс, Билли Рэй
Продюсер: Нина Джейкобсон, Джон Килик, Диана Альварез, Брайан Унклесс, Робин Бисселл
Оператор: Том Стерн
Композитор: Джеймс Ньютон Ховард
В ролях: Дженнифер Лоуренс, Джош Хатчерсон, Лиам Хемсворт, Элизабет Бэнкс, Вуди Харрельсон, Стэнли Туччи, Ленни Кравиц, Уэс Бентли, Дональд Сазерленд, Тоби Джонс, Уиллоу Шилдс, Сандра Эллис Лэфферти-Бюджет: $78 000 000
Сборы в мире: $684 820 042-Описание: Будущее. Деспотичное государство ежегодно устраивает показательные игры на выживание, за которыми в прямом эфире следит весь мир. Жребий участвовать в Играх выпадает юной Китнисс и тайно влюбленному в нее Питу. Они знакомы с детства, но теперь должны стать врагами. Ведь по нерушимому закону Голодных игр победить может только один из 24 участников. Судьям не важно кто выиграет, главное - зрелище. И на этот раз зрелище будет незабываемым.- -Рейтинг MPAA: PG-13 (детям до 13 лет просмотр не желателен)
Российское возрастное ограничение: 16+ (зрителям, достигшим 16 лет)-Релиз: -Качество: DVD5 (сжатый)
Видео: MPEG2; PAL 16:9 (720x576)
Аудио #1: Dolby AC3, 6 ch, 448 Kbps Russian
Аудио #2: Dolby AC3, 6 ch, 256 Kbps English
Субтитры: русские-Дополнительная информация :
Исходник : DVD9 (6.35 Гб - 1й диск) [лицензия, PAL 16:9]
Убрано : заставки, предупреждения, Russian (DTS, 6 ch), произведена замена Russian (AC3, 256 Kbps, 6 ch) на Russian (AC3, 448 Kbps, 6 ch)
Сжатие фильма : 28.2 % сжатия (без учета ручного перераспределения битрейта, за счет большего сжатия конечных титров)
-

использовались программы

DVDRemakePro
Photoshop
MuxMan
PgcDemux
Tranzcode
Sonic Foundry Soft Encode
Rebuilder и CCE (Cinema Craft Encoder), 5 проходов
Работоспособность проверена на софтовом плеере Windows Media и бытовом LG

DVDInfo

Title: Golodnye.igry_2012_DVD5.[R.G.Daredevil]
Size: 4.37 Gb ( 4 584 540,00 KBytes ) - DVD-5
Enabled regions: 1, 2, 3, 4, 5, 6, 7, 8
VTS_01 :
Play Length: 00:00:00
Video: PAL 16:9 (720x576) VBR, Auto Pan&Scan, Auto Letterboxed
VTS_02 :
Play Length: 00:00:00
Video: PAL 16:9 (720x576) VBR, Auto Pan&Scan, Auto Letterboxed
VTS_03 :
Play Length: 02:16:39
Video: PAL 16:9 (720x576) VBR, Auto Pan&Scan, Auto Letterboxed
Audio:
Russian (Dolby AC3, 6 ch)
Russian (Dolby AC3, 6 ch)
Subtitles:
Not specified
Not specified
Not specified

mediainfo

Формат : MPEG-PS
Размер файла : 1024 Мбайт
Продолжительность : 27 м.
Режим общего битрейта : Переменный
Общий поток : 5191 Кбит/сек
Видео
Идентификатор : 224 (0xE0)
Формат : MPEG Video
Версия формата : Version 2
Профиль формата : [email protected]
Параметр BVOP формата : Да
Параметр матрицы формата : Выборочная
Продолжительность : 27 м.
Вид битрейта : Переменный
Битрейт : 4384 Кбит/сек
Максимальный битрейт : 8904 Кбит/сек
Ширина : 720 пикселей
Высота : 576 пикселей
Соотношение сторон : 16:9
Частота кадров : 25,000 кадров/сек
Стандарт вещания : PAL
Цветовое пространство : YUV
Субдискретизация насыщенности : 4:2:0
Битовая глубина : 8 бит
Тип развёртки : Чересстрочная
Порядок развёртки : Верхнее поле первое
Метод сжатия : С потерями
Бит/(Пиксели*Кадры) : 0.423
Размер потока : 865 Мбайт (84%)
Аудио #1
Идентификатор : 189 (0xBD)-128 (0x80)
Формат : AC-3
Формат/Информация : Audio Coding 3
Расширение режима : CM (complete main)
Режим смешивания : DVD-Video
Продолжительность : 27 м.
Вид битрейта : Постоянный
Битрейт : 448 Кбит/сек
Каналы : 6 каналов
Расположение каналов : Front: L C R, Side: L R, LFE
Частота : 48,0 КГц
Битовая глубина : 16 бит
Метод сжатия : С потерями
Размер потока : 88,4 Мбайт (9%)
Аудио #2
Идентификатор : 189 (0xBD)-130 (0x82)
Формат : AC-3
Формат/Информация : Audio Coding 3
Расширение режима : CM (complete main)
Режим смешивания : DVD-Video
Продолжительность : 27 м.
Вид битрейта : Постоянный
Битрейт : 256 Кбит/сек
Каналы : 6 каналов
Расположение каналов : Front: L C R, Side: L R, LFE
Частота : 48,0 КГц
Битовая глубина : 16 бит
Метод сжатия : С потерями
Размер потока : 50,5 Мбайт (5%)
Текст
Идентификатор : 189 (0xBD)-32 (0x20)
Формат : RLE
Формат/Информация : Run-length encoding
Режим смешивания : DVD-Video
Меню

Знаете ли Вы, что...

Фильм снят по роману американской писательницы Сьюзен Коллинз «Голодные игры», написанному в 2008 году.
Александр Людвиг, утвержденный на роль Катона, мог сыграть роль Пита Мелларка.
Стивен Содерберг стал режиссером второй съемочной группы фрагмента, относящегося к событиям в Одиннадцатом дистрикте.
Ленни Кравиц, утвержденный на роль Цинны, стилиста Китнисс, на самом деле вдвое старше своего героя.
На роль Китнисс было рассмотрено около 30 актрис, среди них — Хейли Стейнфелд, Эбигейл Бреслин, Эмма Робертс, Сирша Ронан, Хлоя Морец, Линдси Фонсека, Эмили Браунинг, Шэйлин Вудли и Кая Скоделарио.
Кроме Джоша Хатчерсона, претендентами на роль Пита были Хантер Пэрриш, Лукас Тилл и Эван Петерс.
Джон Рейли пробовался на роль Хеймитча Эбернети.
Кроме Лиам Хемсворта, претендентами на роль Гейла были Дэвид Генри, Робби Амелл и Дрю Рой.

Скриншоты меню

     

Скриншоты фильма

         
Other forum [Profile] [PM]
Display posts from previous:    
Reply to topic

The time now is: Today 11:58

All times are GMT + 3 Hours



You cannot post new topics in this forum
You cannot reply to topics in this forum
You cannot edit your posts in this forum
You cannot delete your posts in this forum
You cannot vote in polls in this forum
You cannot attach files in this forum
You cannot download files in this forum