Today is a free download without charge Download

Потерпевший / Крушение / Wrecked ( Майкл Гринспен) (2010,Триллер, Драма, Детектив) DVD9

Reply to topic
 
Author
Message

Витек1 ®

Gender:

Longevity: 8 years 3 months

Posts: 451

Location: Житомир

Торрент-статистика

Post 10-Feb-2013 19:20

[Quote]

Потерпевший / Крушение / Wrecked - Русское название: Потерпевший / Крушение
Оригинальное название: Wrecked
Год выпуска: 2010
Производство: США, Канада
Жанр: Триллер, Драма, Детектив
Перевод: Многоголосый закадровый (Лицензия)
Вид субтитров: Вшитые отключаемые
Язык субтитров: Русский
Режиссер: Майкл Гринспен
Актеры: Эдриан Броуди, Каролин Давернас, Райан Роббинс, Адриан Хьюз, Адриан Холмс, Ллойд Адамс, Марк МакКончи, Джейкоб Блэр
Описание фильма:
Герой очнулся в разбитом автомобиле, посреди каких-то джунглей. Машина разбита, у него сломана нога, вокруг несколько трупов, а в машине револьвер. Он ничего не помнит — как он здесь оказался и даже как его зовут. Вокруг глухой лес и никого нет. Сначала надо как-то выжить, а потом попытаться добраться до людей, по пути еще и вспомнив что же произошло...

Дата мировой премьеры: 15 октября 2010
Дата выхода DVD релиза: 28 января 2013, «Новый Диск»
Продолжительность: 01:25:59
Качество видео: DVD9
Видеокодек: MPEG-2
Битрейт видео: ~7268 kbps
Размер кадра: PAL 16:9 ([email protected]х576)
Аудио 1: AC3, 6 ch, 448 kbps (Многоголосый, Русский)
Аудио 2: AC3, 6 ch, 448 kbps (Оригинал, Английский)
Дополнительно: Эдриан Броуди, Фотогалерея, Смотрите на DVD

MediaInfo:

Общее
Полное имя : Poterpevshij.2010.P.DVD9\VIDEO_TS\VTS_08_3.VOB
Формат : MPEG-PS
Размер файла : 1024 Мбайт
Продолжительность : 17 м.
Режим общего битрейта : Переменный
Общий поток : 8330 Кбит/сек
Видео
Идентификатор : 224 (0xE0)
Формат : MPEG Video
Версия формата : Version 2
Профиль формата : [email protected]
Параметр BVOP формата : Да
Параметр матрицы формата : Выборочная
Параметр GOP формата : M=2, N=12
Продолжительность : 17 м.
Вид битрейта : Переменный
Битрейт : 7268 Кбит/сек
Максимальный битрейт : 9800 Кбит/сек
Ширина : 720 пикселей
Высота : 576 пикселей
Соотношение сторон : 16:9
Частота кадров : 25,000 кадров/сек
Стандарт вещания : PAL
Цветовое пространство : YUV
Субдискретизация насыщенности : 4:2:0
Битовая глубина : 8 бит
Тип развёртки : Чересстрочная
Порядок развёртки : Верхнее поле первое
Метод сжатия : С потерями
Бит/(Пиксели*Кадры) : 0.701
Размер потока : 893 Мбайт (87%)
Аудио #1
Идентификатор : 189 (0xBD)-128 (0x80)
Формат : AC-3
Формат/Информация : Audio Coding 3
Расширение режима : CM (complete main)
Режим смешивания : DVD-Video
Продолжительность : 17 м.
Вид битрейта : Постоянный
Битрейт : 448 Кбит/сек
Каналы : 6 каналов
Расположение каналов : Front: L C R, Side: L R, LFE
Частота : 48,0 КГц
Битовая глубина : 16 бит
Метод сжатия : С потерями
Задержка видео : -736 мс.
Размер потока : 55,1 Мбайт (5%)
Аудио #2
Идентификатор : 189 (0xBD)-129 (0x81)
Формат : AC-3
Формат/Информация : Audio Coding 3
Расширение режима : CM (complete main)
Режим смешивания : DVD-Video
Продолжительность : 17 м.
Вид битрейта : Постоянный
Битрейт : 448 Кбит/сек
Каналы : 6 каналов
Расположение каналов : Front: L C R, Side: L R, LFE
Частота : 48,0 КГц
Битовая глубина : 16 бит
Метод сжатия : С потерями
Задержка видео : -736 мс.
Размер потока : 55,1 Мбайт (5%)
Меню

DVDInfo:

Title: Poterpevshij.2010.P.DVD9
Size: 5.25 Gb ( 5 503 016,00 KBytes ) - DVD-9
Enabled regions: 1, 2, 3, 4, 5, 6, 7, 8
VTS_01 :
Play Length: 00:00:15
Video: PAL 16:9 (720x576) VBR, Auto Letterboxed
Audio:
Not specified (Dolby AC3, 2 ch)
VTS_02 :
Play Length: 00:00:08
Video: PAL 16:9 (720x576) VBR, Auto Letterboxed
Audio:
Not specified (Dolby AC3, 2 ch)
VTS_03 :
Play Length: 00:00:09
Video: PAL 16:9 (720x576) VBR, Auto Letterboxed
Audio:
Not specified (Dolby AC3, 2 ch)
VTS_04 :
Play Length: 00:00:15
Video: PAL 4:3 (720x576) VBR
Audio:
Not specified (Dolby AC3, 2 ch)
VTS_05 :
Play Length: 00:00:15
Video: PAL 16:9 (720x576) VBR, Auto Letterboxed
Audio:
Not specified (Dolby AC3, 2 ch)
VTS_06 :
Play Length: 00:00:20
Video: PAL 16:9 (720x576) VBR, Auto Letterboxed
Audio:
Not specified (Dolby AC3, 2 ch)
VTS_07 :
Play Length: 00:00:01
Video: PAL 16:9 (720x576) VBR, Auto Letterboxed
Audio:
Russian (Dolby AC3, 2 ch)
Deutsch (Dolby AC3, 2 ch)
Subtitles:
Russian
VTS_08 :
Play Length: 01:25:59
Video: PAL 16:9 (720x576) VBR, Auto Letterboxed
Audio:
Russian (Dolby AC3, 6 ch)
English (Dolby AC3, 6 ch)
Subtitles:
Russian
VTS_09 :
Play Length: 00:00:01
Video: PAL 16:9 (720x576) VBR, Auto Letterboxed
Audio:
Russian (Dolby AC3, 2 ch)
Deutsch (Dolby AC3, 2 ch)
Subtitles:
Russian
VTS_10 :
Play Length: 00:05:00
Video: PAL 16:9 (720x576) VBR, Auto Letterboxed
Audio:
English (Dolby AC3, 2 ch)
VTS_11 :
Play Length: 00:01:49
Video: PAL 16:9 (720x576) VBR, Auto Letterboxed
Audio:
Russian (Dolby AC3, 2 ch)
VTS_12 :
Play Length: 00:02:33
Video: PAL 16:9 (720x576) VBR, Auto Letterboxed
Audio:
Russian (Dolby AC3, 2 ch)
VTS_13 :
Play Length: 00:02:05
Video: PAL 16:9 (720x576) VBR, Auto Letterboxed
Audio:
Russian (Dolby AC3, 2 ch)
VTS_14 :
Play Length: 00:01:59
Video: PAL 16:9 (720x576) VBR, Auto Letterboxed
Audio:
Russian (Dolby AC3, 2 ch)
VTS_15 :
Play Length: 00:02:20
Video: PAL 16:9 (720x576) VBR, Auto Letterboxed
Audio:
Russian (Dolby AC3, 2 ch)
VTS_16 :
Play Length: 00:01:35
Video: PAL 16:9 (720x576) VBR, Auto Letterboxed
Audio:
Russian (Dolby AC3, 2 ch)
VTS_17 :
Play Length: 00:02:04
Video: PAL 16:9 (720x576) VBR, Auto Letterboxed
Audio:
Russian (Dolby AC3, 2 ch)
* Menus Information *
VIDEO_TS Menu
Video:
PAL 16:9 (720x576) VBR
Auto Pan&Scan
English Language Unit :
Title Menu
VTS_01 Menu
Video:
PAL 16:9 (720x576) VBR
Auto Letterboxed
Audio:
Not specified (Dolby AC3, 2 ch)
English Language Unit :
Root Menu
Chapter (PTT) Menu
VTS_02 Menu
Video:
PAL 4:3 (720x576) VBR
Auto Pan&Scan, Auto Letterboxed
English Language Unit :
Root Menu
Chapter (PTT) Menu
VTS_03 Menu
Video:
PAL 4:3 (720x576) VBR
Auto Pan&Scan, Auto Letterboxed
English Language Unit :
Root Menu
Chapter (PTT) Menu
VTS_04 Menu
Video:
PAL 4:3 (720x576) VBR
Auto Pan&Scan, Auto Letterboxed
English Language Unit :
Root Menu
Chapter (PTT) Menu
VTS_05 Menu
Video:
PAL 4:3 (720x576) VBR
Auto Pan&Scan, Auto Letterboxed
English Language Unit :
Root Menu
Chapter (PTT) Menu
VTS_06 Menu
Video:
PAL 4:3 (720x576) VBR
Auto Pan&Scan, Auto Letterboxed
English Language Unit :
Root Menu
Chapter (PTT) Menu
VTS_07 Menu
Video:
PAL 4:3 (720x576) VBR
Auto Pan&Scan, Auto Letterboxed
English Language Unit :
Root Menu
Chapter (PTT) Menu
VTS_08 Menu
Video:
PAL 4:3 (720x576) VBR
Auto Pan&Scan, Auto Letterboxed
English Language Unit :
Root Menu
Chapter (PTT) Menu
VTS_09 Menu
Video:
PAL 4:3 (720x576) VBR
Auto Pan&Scan, Auto Letterboxed
English Language Unit :
Root Menu
Chapter (PTT) Menu
VTS_10 Menu
Video:
PAL 4:3 (720x576) VBR
Auto Pan&Scan, Auto Letterboxed
English Language Unit :
Root Menu
Chapter (PTT) Menu
VTS_11 Menu
Video:
PAL 4:3 (720x576) VBR
Auto Pan&Scan, Auto Letterboxed
English Language Unit :
Root Menu
Chapter (PTT) Menu
VTS_12 Menu
Video:
PAL 4:3 (720x576) VBR
Auto Pan&Scan, Auto Letterboxed
English Language Unit :
Root Menu
Chapter (PTT) Menu
VTS_13 Menu
Video:
PAL 4:3 (720x576) VBR
Auto Pan&Scan, Auto Letterboxed
English Language Unit :
Root Menu
Chapter (PTT) Menu
VTS_14 Menu
Video:
PAL 4:3 (720x576) VBR
Auto Pan&Scan, Auto Letterboxed
English Language Unit :
Root Menu
Chapter (PTT) Menu
VTS_15 Menu
Video:
PAL 4:3 (720x576) VBR
Auto Pan&Scan, Auto Letterboxed
English Language Unit :
Root Menu
Chapter (PTT) Menu
VTS_16 Menu
Video:
PAL 4:3 (720x576) VBR
Auto Pan&Scan, Auto Letterboxed
English Language Unit :
Root Menu
Chapter (PTT) Menu
VTS_17 Menu
Video:
PAL 4:3 (720x576) VBR
Auto Pan&Scan, Auto Letterboxed
English Language Unit :
Root Menu
Chapter (PTT) Menu

Меню DVD:

       

Скриншоты

       
       

_________________
Скачал сам, дай скачать другому!!!Не забудь сказать -
Other forum [Profile] [PM]
Display posts from previous:    
Reply to topic

The time now is: Today 02:44

All times are GMT + 3 Hours



You cannot post new topics in this forum
You cannot reply to topics in this forum
You cannot edit your posts in this forum
You cannot delete your posts in this forum
You cannot vote in polls in this forum
You cannot attach files in this forum
You cannot download files in this forum