Today is a free download without charge Download

По имени Барон / Серии: 1-12 из 12 (Дмитрий Светозаров) [2002, криминал, драма, DVDRip - AVC]

Reply to topic
 
Author
Message

Omen ®

Longevity: 9 years 1 month

Posts: 181086

Торрент-статистика

Post 10-Feb-2013 19:04

[Quote]

По имени Барон- Год выпуска: 2002
Производство: «Люксфильм» и «Дельфин»
Жанр: криминал, драма
Продолжительность: ~ 00:48:00
Субтитры: нет-Режиссёр: Дмитрий Светозаров-В ролях: Нодар Мгалоблишвили, Сергей Бехтерев, Лилиан Малкина, Ксения Раппопорт, Ервант Арзуманян, Игорь Лифанов, Светлана Смирнова, Михаил Девяткин, Анна Геллер, Геннадий Ткаченко и др.-Описание: История жизни человека, родившегося в эвакуации на глазах превратившегося из скромного еврейского мальчика Иосифа в жестокого и циничного вора в законе безжалостного и к своим, и к чужим. Человек, который однажды потерял, забыл, променял свое настоящее имя став просто Бароном…-Доп. Информация: Спасибо Волкодав1982 за предоставленный исходник!-Любая реклама ОТСУТСТВУЕТ!!!
Сэмпл-Качество: DVDRip - AVC
Формат: MKV
Видео кодек: H.264
Аудио кодек: AC3
Видео: x264, 704 х 572**751 х 572 (4:3), 25,000 кадр/сек, ~ 1507 Кбит/сек, ~ 0.150 bit/pixel
Аудио: AC3, 48.0 KHz, 2 канала(ов), 192 kbs

MI

Complete name : По имени Барон.01 серия.2001.DVDRip-AVC.Metla111.mkv
Format : Matroska
Format version : Version 2
File size : 600 MiB
Duration : 49mn 20s
Overall bit rate : 1 701 Kbps
Encoded date : UTC 2013-02-03 16:59:12
Writing application : mkvmerge v5.8.0 ('No Sleep / Pillow') built on Sep 2 2012 15:37:04
Writing library : libebml v1.2.3 + libmatroska v1.3.0
Video
ID : 1
Format : AVC
Format/Info : Advanced Video Codec
Format profile : [email protected]
Format settings, CABAC : Yes
Format settings, ReFrames : 12 frames
Codec ID : V_MPEG4/ISO/AVC
Duration : 49mn 20s
Bit rate : 1 507 Kbps
Width : 704 pixels
Height : 572 pixels
Display aspect ratio : 4:3
Frame rate mode : Constant
Frame rate : 25.000 fps
Color space : YUV
Chroma subsampling : 4:2:0
Bit depth : 8 bits
Scan type : Progressive
Bits/(Pixel*Frame) : 0.150
Stream size : 520 MiB (87%)
Writing library : x264 core 125 r2208 d9d2288
Encoding settings : cabac=1 / ref=12 / deblock=1:-3:-3 / analyse=0x3:0x113 / me=umh / subme=9 / psy=1 / psy_rd=1.00:0.20 / mixed_ref=1 / me_range=32 / chroma_me=1 / trellis=2 / 8x8dct=1 / cqm=0 / deadzone=21,11 / fast_pskip=1 / chroma_qp_offset=-3 / threads=6 / lookahead_threads=1 / sliced_threads=0 / nr=0 / decimate=0 / interlaced=0 / bluray_compat=0 / constrained_intra=0 / bframes=10 / b_pyramid=2 / b_adapt=2 / b_bias=0 / direct=3 / weightb=1 / open_gop=0 / weightp=2 / keyint=250 / keyint_min=25 / scenecut=40 / intra_refresh=0 / rc=2pass / mbtree=0 / bitrate=1507 / ratetol=1.0 / qcomp=0.70 / qpmin=0 / qpmax=69 / qpstep=4 / cplxblur=20.0 / qblur=0.5 / ip_ratio=1.40 / pb_ratio=1.30 / aq=1:1.00
Default : Yes
Forced : No
Color primaries : BT.601 PAL
Transfer characteristics : BT.470 System B, BT.470 System G
Matrix coefficients : BT.601
Audio
ID : 2
Format : AC-3
Format/Info : Audio Coding 3
Mode extension : CM (complete main)
Format settings, Endianness : Big
Codec ID : A_AC3
Duration : 49mn 20s
Bit rate mode : Constant
Bit rate : 192 Kbps
Channel(s) : 2 channels
Channel positions : Front: L R
Sampling rate : 48.0 KHz
Bit depth : 16 bits
Compression mode : Lossy
Stream size : 67.8 MiB (11%)
Default : Yes
Forced : No

Log - x264

raw [info]: 704x572p 16:15 @ 25/1 fps (cfr)
x264 [info]: using SAR=16/15
x264 [info]: using cpu capabilities: MMX2 SSE2Fast SSSE3 FastShuffle SSE4.2
x264 [info]: profile High, level 3.2
x264 [info]: frame I:443 Avg QP:20.65 size: 53894
x264 [info]: frame P:26263 Avg QP:23.46 size: 13763
x264 [info]: frame B:47297 Avg QP:24.35 size: 3642
x264 [info]: consecutive B-frames: 17.5% 1.2% 10.3% 24.1% 23.1% 23.8% 0.1% 0.0% 0.0% 0.0% 0.0%
x264 [info]: mb I I16..4: 2.0% 86.0% 12.0%
x264 [info]: mb P I16..4: 0.2% 4.0% 0.5% P16..4: 45.7% 22.9% 12.9% 0.0% 0.0% skip:13.9%
x264 [info]: mb B I16..4: 0.0% 0.2% 0.0% B16..8: 46.2% 7.7% 1.7% direct: 3.4% skip:40.8% L0:35.3% L1:49.1% BI:15.6%
x264 [info]: 8x8 transform intra:85.8% inter:58.3%
x264 [info]: direct mvs spatial:96.9% temporal:3.1%
x264 [info]: coded y,uvDC,uvAC intra: 95.2% 56.0% 20.6% inter: 25.0% 12.0% 1.4%
x264 [info]: i16 v,h,dc,p: 28% 16% 7% 49%
x264 [info]: i8 v,h,dc,ddl,ddr,vr,hd,vl,hu: 13% 8% 6% 10% 13% 15% 11% 13% 11%
x264 [info]: i4 v,h,dc,ddl,ddr,vr,hd,vl,hu: 15% 7% 2% 10% 15% 16% 12% 12% 10%
x264 [info]: i8c dc,h,v,p: 32% 31% 22% 14%
x264 [info]: Weighted P-Frames: Y:3.1% UV:0.9%
x264 [info]: ref P L0: 56.5% 13.7% 12.5% 3.3% 3.4% 2.2% 2.4% 1.2% 1.3% 1.0% 1.1% 1.0% 0.4% 0.0%
x264 [info]: ref B L0: 88.8% 6.0% 1.6% 0.9% 0.7% 0.6% 0.5% 0.3% 0.3% 0.2% 0.2%
x264 [info]: ref B L1: 97.9% 2.1%
x264 [info]: kb/s:1506.94

Скриншоты

-
Other forum [Profile] [PM]
Display posts from previous:    
Reply to topic

The time now is: Today 22:56

All times are GMT + 3 Hours



You cannot post new topics in this forum
You cannot reply to topics in this forum
You cannot edit your posts in this forum
You cannot delete your posts in this forum
You cannot vote in polls in this forum
You cannot attach files in this forum
You cannot download files in this forum