Today is a free download without charge Download

Город страха / Fear City (Абель Феррара / Abel Ferrara) [1984, США, триллер, драма, криминал, детектив, BDRip 720p] MVO + AVO (Сонькин) + Original Eng

Reply to topic
 
Author
Message

Omen ®

Longevity: 8 years 5 months

Posts: 181087

Торрент-статистика

Post 10-Feb-2013 19:04

[Quote]

Город страха / Fear City -Страна: США
Студия: 20th Century Fox
Жанр: триллер, драма, криминал, детектив
Год выпуска: 1984-Продолжительность: 01:34:53
Перевод 1: профессиональный (многоголосый закадровый) |
Перевод 2: авторский (одноголосый закадровый) - Сонькин
Cубтитры: отсутствуют
Оригинальная аудиодорожка: английский-Режиссер: Абель Феррара / Abel Ferrara
В ролях: Том Беренджер, Билли Ди Уильямс, Джек Скалия, Мелани Гриффит, Россано Брацци, Рей Дон Чонг, Джо Сантос, Майкл В. Гаццо, Жан Мюррэй, Джанет Джулиан-Описание:
Нью-Йорк, Манхетен. Функционирует круглосуточно. Мир стрип-баров, денег и порочного обаяния. Здесь удовольствие является бизнесом и ночь принадлежит девушкам из стриптиза — шоугелз. Стриптизерок поджидает в засаде сексуальный маньяк, жестоко убивающий самых горячих и привлекательных. Одному из сутенеров приходится самому выйти на охоту за убийцей, так как усилий полиции явно недостаточно, тем более, что на стороне преступника оказывается один из полицейских.-Тип релиза: BDRip 720p
Контейнер: MKV
Видео: х264 ~9500 kbps 1280х792 / 23.976 fps / 1.616:1 / High Profile 4.1
Аудио #1: Russian DD 2.0 48 kHz 192 kbps – закадровый (многоголосый);
Аудио #2: Russian DD 2.0 48 kHz 192 kbps – закадровый (авторский одноголосый, Сонькин);
Аудио #3: English DTS 2.0 48 kHz 1510 kbps 24-bit
Релиз:

Доп. информация

Сохранены оригинальные чаптеры как на Blu-ray.

MediaInfo

GeneralUnique ID : 203727625038510872220338206614894793353 (0x9944836B4D70F62DA53F47EF6E6DD289)Complete name : D:\Movies\Fear.City.1984.x264.BDRip.720p.HDTracker.mkvFormat : MatroskaFormat version : Version 2File size : 7.55 GiBDuration : 1h 34mnOverall bit rate : 11.4 MbpsMovie name : =HDTracker= by =WhiteHorse=Encoded date : UTC 2012-10-09 16:42:58Writing application : mkvmerge v4.4.0 ('Die Wiederkehr') сборка от Oct 31 2010 21:52:48Writing library : libebml v1.0.0 + libmatroska v1.0.0
VideoID : 1Format : AVCFormat/Info : Advanced Video CodecFormat profile : [email protected] settings, CABAC : YesFormat settings, ReFrames : 6 framesCodec ID : V_MPEG4/ISO/AVCDuration : 1h 34mnBit rate : 9 500 KbpsWidth : 1 280 pixelsHeight : 792 pixelsDisplay aspect ratio : 1.616Frame rate mode : ConstantFrame rate : 23.976 fpsColor space : YUVChroma subsampling : 4:2:0Bit depth : 8 bitsScan type : ProgressiveBits/(Pixel*Frame) : 0.391Stream size : 6.15 GiB (81%)Title : ВидеорядWriting library : x264 core 92 r1510 33d382aEncoding settings : cabac=1 / ref=6 / deblock=1:-3:-3 / analyse=0x3:0x133 / me=esa / subme=10 / psy=1 / psy_rd=1.00:0.10 / mixed_ref=1 / me_range=32 / chroma_me=1 / trellis=2 / 8x8dct=1 / cqm=0 / deadzone=21,11 / fast_pskip=0 / chroma_qp_offset=-5 / threads=12 / sliced_threads=0 / nr=0 / decimate=1 / interlaced=0 / constrained_intra=0 / bframes=8 / b_pyramid=2 / b_adapt=2 / b_bias=0 / direct=3 / wpredb=1 / wpredp=2 / keyint=240 / keyint_min=23 / scenecut=40 / intra_refresh=0 / rc_lookahead=50 / rc=2pass / mbtree=1 / bitrate=9500 / ratetol=1.0 / qcomp=0.70 / qpmin=1 / qpmax=51 / qpstep=4 / cplxblur=20.0 / qblur=0.5 / vbv_maxrate=40000 / vbv_bufsize=30000 / ip_ratio=1.40 / aq=1:1.00 / nal_hrd=noneDefault : YesForced : No
Audio #1ID : 2Format : AC-3Format/Info : Audio Coding 3Mode extension : CM (complete main)Format settings, Endianness : BigCodec ID : A_AC3Duration : 1h 34mnBit rate mode : ConstantBit rate : 192 KbpsChannel(s) : 2 channelsChannel positions : Front: L RSampling rate : 48.0 KHzBit depth : 16 bitsCompression mode : LossyStream size : 130 MiB (2%)Title : МногоголосыйLanguage : RussianDefault : YesForced : No
Audio #2ID : 3Format : AC-3Format/Info : Audio Coding 3Mode extension : CM (complete main)Format settings, Endianness : BigCodec ID : A_AC3Duration : 1h 34mnBit rate mode : ConstantBit rate : 192 KbpsChannel(s) : 2 channelsChannel positions : Front: L RSampling rate : 48.0 KHzBit depth : 16 bitsCompression mode : LossyStream size : 130 MiB (2%)Title : СонькинLanguage : RussianDefault : NoForced : No
Audio #3ID : 4Format : DTSFormat/Info : Digital Theater SystemsMode : 16Format settings, Endianness : BigCodec ID : A_DTSDuration : 1h 34mnBit rate mode : ConstantBit rate : 1 509 KbpsChannel(s) : 2 channelsChannel positions : Front: L RSampling rate : 48.0 KHzBit depth : 24 bitsCompression mode : LossyStream size : 1.00 GiB (13%)Title : АнглийскийLanguage : EnglishDefault : NoForced : No
Menu00:00:00.000 : :Chapter 0100:07:26.779 : :Chapter 0200:14:07.680 : :Chapter 0300:28:59.696 : :Chapter 0400:40:58.831 : :Chapter 0500:55:07.679 : :Chapter 0601:08:51.127 : :Chapter 0701:19:17.669 : :Chapter 0801:23:56.239 : :Chapter 09

Скриншоты

Other forum [Profile] [PM]
Similar theme
Forum Topic Author Torrent Replies Last Post
./templates/default/images/folder_dl.gif Приключения и квесты Small Town Terrors 3 Galdors Bluff Sammleredition / Террор в городке 3 Блеф Галдора Коллекционное издание [P] [RUS] (2015) Omen
4 | 0

0 | 2342

24

2015-06-13 15:00
Omen Latest
Display posts from previous:    
Reply to topic

The time now is: Today 09:38

All times are GMT + 3 Hours



You cannot post new topics in this forum
You cannot reply to topics in this forum
You cannot edit your posts in this forum
You cannot delete your posts in this forum
You cannot vote in polls in this forum
You cannot attach files in this forum
You cannot download files in this forum