Today is a free download without charge Download

Сотовый / Cellular (Дэвид Р. Эллис) [2004 г., триллер, криминал, BDRip 720p]

Reply to topic
 
Author
Message

Delia ®

Gender:

Longevity: 9 years 6 months

Posts: 1821

Торрент-статистика

Post 22-May-2011 09:36

[Quote]

СотовыйCellular Год выпуска: 2004
Страна: США, Германия
Жанр: триллер, криминал
Продолжительность: 01:34:00
Перевод: Профессиональный (полное дублирование)
Режиссер: Дэвид Р. Эллис
Продюссер: Ричард Бренер, Дуглас Кертис, Дин Девлин
Сценарий: Ларри Коэн, Крис Морган
Бюджет: $25 000 000
Премьера в мире: 10 сентября 2004
В ролях: Ким Бейсингер, Джессика Бил, Крис Эванс, Эрик Кристиан Олсен, Джейсон Стэтхэм, Эрик Этебари, Уильям Х. Мэйси, Ричард Берджи, Мэтт МакКольм, Эдди Дрисколл
Описание: Джессику похищают и запирают на чердаке. Вся её надежда на неисправный, едва работающий телефон. Позвонив по первому попавшемуся номеру, она сообщает Райану (случайному молодому человеку) о своем похищении и о том, что её хотят убить, а также и её мужа и сына, за которыми теперь отправились похитители.Она не знает, где находится, а у единственного возможного спасителя скоро сядет батарейка телефона. Теперь Райану, знакомому с Джессикой только по ее паническому голосу, придется бороться со временем, которого остается все меньше, и постоянными проблемами со связью и лицом столкнуться с убийством и обманом.
Качество: BDRip
Формат: MKV
Видео кодек: H.264
Аудио кодек: AC3
Видео: English, 5506 Кбит/сек, 1280*720 (16:9), в 29,970 кадр/сек, AVC ([email protected])
Аудио: Russian, 384 Кбит/сек, 48,0 КГц, 16 бит, 6 канала(ов), AC-3|Дублированный
Аудио: Russian, 448 Кбит/сек, 48,0 КГц, 16 бит, 6 канала(ов), AC-3|Профессиональный многоголосый (Tycoon)
Аудио: English, 320 Кбит/сек, 48,0 КГц, 16 бит, 6 канала(ов), AC-3|Оригинал
Субтитры:Russian, English - VobSub

MI:

Общее
Уникальный идентификатор : 198978614929444151872416744256021700006 (0x95B1E324AF92A191AF16A1EC7F5B9DA6)
Полное имя : E:\торрент\Cellular (2004)BDRip 720p.mkv
Формат : Matroska
Размер файла : 4,36 Гбайт
Продолжительность : 1 ч. 34 м.
Общий поток : 6645 Кбит/сек
Дата кодирования : UTC 2011-05-22 05:54:20
Программа кодирования : mkvmerge v4.7.0 ('Just Like You Imagined') built on Apr 21 2011 01:13:14
Библиотека кодирования : libebml v1.2.0 + libmatroska v1.1.0
Видео
Идентификатор : 1
Формат : AVC
Формат/Информация : Advanced Video Codec
Профиль формата : [email protected]
Параметр CABAC формата : Да
Параметр ReFrames формата : 8 кадры
Идентификатор кодека : V_MPEG4/ISO/AVC
Продолжительность : 1 ч. 34 м.
Битрейт : 5506 Кбит/сек
Ширина : 1280 пикс.
Высота : 720 пикс.
Соотношение сторон : 16:9
Частота кадров : 29,970 кадр/сек
Цветовое пространство : YUV
Подвыборка цветности : 4:2:0
Битовая глубина : 8 бит
Тип развёртки : Прогрессивная
Бит/(Пиксели*Кадры) : 0.199
Размер потока : 3,52 Гбайт (81%)
Библиотека кодирования : x264 core 115 r1995 c1e60b9
Настройки программы : cabac=1 / ref=8 / deblock=1:-1:-1 / analyse=0x3:0x133 / me=umh / subme=7 / psy=1 / psy_rd=1.00:0.15 / mixed_ref=1 / me_range=32 / chroma_me=1 / trellis=2 / 8x8dct=1 / cqm=0 / deadzone=21,11 / fast_pskip=0 / chroma_qp_offset=-3 / threads=6 / sliced_threads=0 / nr=0 / decimate=1 / interlaced=0 / bluray_compat=0 / constrained_intra=0 / bframes=6 / b_pyramid=2 / b_adapt=1 / b_bias=0 / direct=1 / weightb=1 / open_gop=0 / weightp=2 / keyint=250 / keyint_min=24 / scenecut=40 / intra_refresh=0 / rc_lookahead=50 / rc=2pass / mbtree=1 / bitrate=5506 / ratetol=1.0 / qcomp=0.80 / qpmin=5 / qpmax=51 / qpstep=4 / cplxblur=20.0 / qblur=0.5 / ip_ratio=1.40 / aq=1:1.00
Язык : English
Аудио #1
Идентификатор : 2
Формат : AC-3
Формат/Информация : Audio Coding 3
Расширение режима : CM (complete main)
Идентификатор кодека : A_AC3
Продолжительность : 1 ч. 34 м.
Вид битрейта : Постоянный
Битрейт : 384 Кбит/сек
Канал(ы) : 6 канала(ов)
Расположение каналов : Front: L C R, Side: L R, LFE
Частота : 48,0 КГц
Битовая глубина : 16 бит
Метод сжатия : С потерями
Размер потока : 258 Мбайт (6%)
Язык : Russian
Аудио #2
Идентификатор : 3
Формат : AC-3
Формат/Информация : Audio Coding 3
Расширение режима : CM (complete main)
Идентификатор кодека : A_AC3
Продолжительность : 1 ч. 34 м.
Вид битрейта : Постоянный
Битрейт : 448 Кбит/сек
Канал(ы) : 6 канала(ов)
Расположение каналов : Front: L C R, Side: L R, LFE
Частота : 48,0 КГц
Битовая глубина : 16 бит
Метод сжатия : С потерями
Размер потока : 301 Мбайт (7%)
Язык : Russian
Аудио #3
Идентификатор : 4
Формат : AC-3
Формат/Информация : Audio Coding 3
Расширение режима : CM (complete main)
Идентификатор кодека : A_AC3
Продолжительность : 1 ч. 34 м.
Вид битрейта : Постоянный
Битрейт : 320 Кбит/сек
Канал(ы) : 6 канала(ов)
Расположение каналов : Front: L C R, Side: L R, LFE
Частота : 48,0 КГц
Битовая глубина : 16 бит
Метод сжатия : С потерями
Размер потока : 215 Мбайт (5%)
Язык : English
Текст #1
Идентификатор : 5
Формат : VobSub
Режим смешивания : zlib
Идентификатор кодека : S_VOBSUB
Идентификатор кодека/Информация : The same subtitle format used on DVDs
Язык : Russian
Текст #2
Идентификатор : 6
Формат : VobSub
Режим смешивания : zlib
Идентификатор кодека : S_VOBSUB
Идентификатор кодека/Информация : The same subtitle format used on DVDs
Язык : English
Меню
00:00:00.000 : en:00:00:00.000
00:05:50.483 : en:00:05:50.483
00:12:45.431 : en:00:12:45.431
00:18:12.892 : en:00:18:12.892
00:23:16.161 : en:00:23:16.161
00:29:46.952 : en:00:29:46.952
00:36:18.009 : en:00:36:18.009
00:44:53.925 : en:00:44:53.925
00:52:58.108 : en:00:52:58.108
00:59:13.483 : en:00:59:13.483
01:06:52.275 : en:01:06:52.275
01:10:53.449 : en:01:10:53.449
01:15:35.564 : en:01:15:35.564
01:22:16.331 : en:01:22:16.331
01:24:48.016 : en:01:24:48.016
01:27:48.630 : en:01:27:48.630

Скриншоты

        

_________________
Человек – это канат, натянутый между животным и сверхчеловеком, – канат над пропастью.
В человеке ценно то, что он мост, а не цель. Фридрих Ницше


Last edited by Delia on 2011-08-26 18:27; edited 2 times in total
Other forum [Profile] [PM]
Display posts from previous:    
Reply to topic

The time now is: Today 00:05

All times are GMT + 3 Hours



You cannot post new topics in this forum
You cannot reply to topics in this forum
You cannot edit your posts in this forum
You cannot delete your posts in this forum
You cannot vote in polls in this forum
You cannot attach files in this forum
You cannot download files in this forum