Today is a free download without charge Download

Второе восстание Спартака (1-3 серия из ??) [2012, Военная драма, DVB]

Reply to topic
 
Author
Message

Omen ®

Longevity: 9 years 1 month

Posts: 181086

Торрент-статистика

Post 10-Feb-2013 15:00

[Quote]

Второе восстание Спартака
Год выпуска: 2012
Производство: Централ Партнершип, 2-Б-2
Жанр: Военная драма
Продолжительность: ~ 00:45:00
Субтитры: Украинские вшитые
Режиссёр: Василий Пичул
В ролях: Константин Крюков, Татьяна Арнтгольц, Кирилл Плетнев, Александр Лойе, Виктор Раков, Галина Польских, Александр Семчев, Александра Урсуляк, Даниил Спиваковский, Виктор Проскурин, Сергей Варчук, Роман Радов, Нияз Гаджиев, Алексей Солончев, Денис Липатов, Дмитрий Буренков, Алексей Эйбоженко (мл.), Виталий Абдулов, Александр Орав, Антон Ескин, Александр Поляк, Денис Константинов, Андрей Межулис, Оксана Гуляева, Александр Горелов (II), Екатерина Федотова (II), Максим Костромыкин, Дмитрий Кошелев, Максим Дромашко
Описание: По одноименному роману Александра Бушкова и Андрея Константинова. Спартак Котляревский был русским летчиком, бомбившим Берлин в августе 1941-го. Но вместо Звезды Героя он получил тюремный срок. И теперь у Спартака, как у его тезки, римского гладиатора, две тысячи лет назад, остался единственный выход – восстание. Котляревский организует самый крупный бунт заключенных за всю историю советского режима. Наперекор судьбе Спартак вырывается на волю, чтобы вернуться к любимой...
Релиз от: &
Раздача от группы:
Семпл: http://multi-up.com/829307
Качество: DVB (Astra 4A at 4.8°E)
Формат: MPEG
Видео кодек: MPEG2
Аудио кодек: MPEG1 Layer 2
Видео: MPEG2 Video 720x576 (4:3) 25.00fps ~4 470 Kbps, 0.431 bit/pixel
Аудио: MPEG Audio 48000Hz 1 channel 192 Кбит/сек

MI

Общее
Полное имя 01_seriya__DVB by volk & Files-x__RG Serialy.mpg
Формат : MPEG-PS
Размер файла : 1,52 Гбайт
Продолжительность : 45 м.
Режим общего битрейта : Переменный
Общий поток : 4758 Кбит/сек
Библиотека кодирования : (c) 1998-2010 Womble Multimedia, Inc. / MPEG Video Wizard DVD 5.0.0.114 (01/2010) / Nov 13 2010
Видео
Идентификатор : 224 (0xE0)
Формат : MPEG Video
Версия формата : Version 2
Профиль формата : [email protected]
Параметр BVOP формата : Да
Параметр матрицы формата : Выборочная
Параметр GOP формата : Variable
Продолжительность : 45 м.
Вид битрейта : Переменный
Битрейт : 4472 Кбит/сек
Максимальный битрейт : 15,0 Мбит/сек
Ширина : 720 пикселей
Высота : 576 пикселей
Соотношение сторон : 4:3
Частота кадров : 25,000 кадров/сек
Стандарт вещания : PAL
Цветовое пространство : YUV
Субдискретизация насыщенности : 4:2:0
Битовая глубина : 8 бит
Тип развёртки : Чересстрочная
Порядок развёртки : Верхнее поле первое
Метод сжатия : С потерями
Бит/(Пиксели*Кадры) : 0.431
Размер потока : 1,43 Гбайт (94%)
Выравнивание : (c) 1998-2010 Womble Multimedia, Inc. / MPEG Video Wizard DVD 5.0.0.114 (01/2010) / Nov 13 2010
Заголовок : (c) 1998-2010 Womble Multimedia, Inc. / MPEG Video Wizard DVD 5.0.0.114 (01/2010) / Nov 13 2010
Библиотека кодирования : (c) 1998-2010 Womble Multimedia, Inc. / MPEG Video Wizard DVD 5.0.0.114 (01/2010) / Nov 13 2010
Аудио
Идентификатор : 192 (0xC0)
Формат : MPEG Audio
Версия формата : Version 1
Профиль формата : Layer 2
Продолжительность : 45 м.
Вид битрейта : Постоянный
Битрейт : 192 Кбит/сек
Каналы : 1 канал
Частота : 48,0 КГц
Метод сжатия : С потерями
Размер потока : 62,9 Мбайт (4%)

Скриншоты

Внимание! Раздача ведётся путём добавления новых серий!!!

Внимание! Раздача ведётся путём добавления новых серий; при каждом добавлении создаётся новый торрент.
Чтобы начать докачку новой серии, пользователям необходимо сделать следующее:
1) остановить скачивание
2) удалить старый торрент у себя из клиента (старые серии удалять не надо)
3) скачать новый торрент и запустить его у себя в клиенте вместо старого, при этом указать клиенту путь в старую папку куда и должно происходить скачивание новых серий.
Ваш клиент при этом должен произвести хеширование (проверку) старой папки (если не производит сам - помогите ему сделать это), и будет докачивать только те серии которых у вас ещё нет. Старые серии при этом не удаляются, а продолжают раздаваться!
Eсли вы уже удалили старые серии, то предотвратить повторную закачку старых серий можно, отжав галочку в соответствовавших местах при запуске нового торрента.

Добавлена 2-я, 3-я серия!!!
Обновите торрент файл!!!
Приятного просмотра!!!
Other forum [Profile] [PM]
Display posts from previous:    
Reply to topic

The time now is: Today 22:56

All times are GMT + 3 Hours



You cannot post new topics in this forum
You cannot reply to topics in this forum
You cannot edit your posts in this forum
You cannot delete your posts in this forum
You cannot vote in polls in this forum
You cannot attach files in this forum
You cannot download files in this forum