Today is a free download without charge Download

Моё любимое чудовище (1-4 серии из 4) (2012) SATRip

Reply to topic
 
Author
Message

Omen ®

Longevity: 9 years 1 month

Posts: 181086

Торрент-статистика

Post 09-Feb-2013 22:52

[Quote]

-Моё любимое чудовище (1-4 серии из 4) (2012) SATRip- Русское название: Моё любимое чудовище
Год выпуска: 2012
Жанр: Мелодрама
Производство: Россия / Медиапрофсоюз
Премьера (РФ): Суббота, 9 февраля в 20:45 на канале «Россия»

Режиссер: Петр Степин
Актеры: Анна Миклош, Алексей Осипов, Андрей Карако, Полина Стефанович, Алена Козырева, Анастасия Боброва...
Описание фильма:
Марина Громова – начинающий адвокат и эффектная женщина, которая не спешит создавать семью. Её устраивает жизнь без обязательств и любовь с женатым человеком, но, как говорят, сколько верёвочке не виться, а концу быть. Мировоззрение независимой женщины меняет роковой случай, когда она, пережив нападение, оказывается в глухом лесу. Марина набредает на хутор, где живёт странный мужчина. «Дикарь» отказался от благ цивилизации, как он считает, ради счастья маленькой дочки Алёнушки, которая живёт с ним…
Продолжительность:
Одной серии: ~ 00:45:00
Весь фильм: 00:45:00 х 4
Качество видео: SATRip
Видеокодек: xvid
Битрейт видео: ~1595 Кбит/сек
Размер кадра: 704х400
Аудио: (MP3, 2 ch) 128 Кбит/сек, Русский

MediaInfo

Общее
Полное имя : I:\Kino\Мое любимое чудовище\Moe.ljubimoe.chudovische.2012.4s.nnm\Moe.ljubimoe.chudovische.03s.avi
Формат : AVI
Формат/Информация : Audio Video Interleave
Размер файла : 549 Мбайт
Продолжительность : 44 м.
Общий поток : 1733 Кбит/сек
Библиотека кодирования : VirtualDub-MPEG2 build 24600/release
Видео
Идентификатор : 0
Формат : MPEG-4 Visual
Профиль формата : [email protected]
Параметр BVOP формата : Нет
Параметр QPel формата : Нет
Параметр GMC формата : Без точки перехода
Параметр матрицы формата : Default (H.263)
Идентификатор кодека : DX50
Идентификатор кодека/Подсказка : DivX 5
Продолжительность : 44 м.
Битрейт : 1595 Кбит/сек
Ширина : 704 пикселя
Высота : 400 пикселей
Соотношение сторон : 16:9
Частота кадров : 25,000 кадров/сек
Цветовое пространство : YUV
Субдискретизация насыщенности : 4:2:0
Битовая глубина : 8 бит
Тип развёртки : Прогрессивная
Метод сжатия : С потерями
Бит/(Пиксели*Кадры) : 0.227
Размер потока : 505 Мбайт (92%)
Библиотека кодирования : XviD 1.2.1 (UTC 2008-12-04)
Аудио
Идентификатор : 1
Формат : MPEG Audio
Версия формата : Version 1
Профиль формата : Layer 3
Режим : Joint stereo
Расширение режима : MS Stereo
Идентификатор кодека : 55
Идентификатор кодека/Подсказка : MP3
Продолжительность : 44 м.
Вид битрейта : Постоянный
Битрейт : 128 Кбит/сек
Каналы : 2 канала
Частота : 48,0 КГц
Метод сжатия : С потерями
Размер потока : 40,5 Мбайт (7%)
Выравнивание : Разделение по промежуткам
Продолжительность промежутка : 40 мс. (1,00 видеокадр)
Время предзагрузки промежутка : 500 мс.
Библиотека кодирования : LAME3.98.2
Скриншоты:      
     
Время раздачи: С 09:00до 24:00 мск
Other forum [Profile] [PM]
Display posts from previous:    
Reply to topic

The time now is: Today 04:28

All times are GMT + 3 Hours



You cannot post new topics in this forum
You cannot reply to topics in this forum
You cannot edit your posts in this forum
You cannot delete your posts in this forum
You cannot vote in polls in this forum
You cannot attach files in this forum
You cannot download files in this forum