Today is a free download without charge Download

Кровинушка (Серии 1-31 из 230) (Иван Агапов, Ольга Грекова) [2012, Россия, Студия "Гармония", Мелодрама, SATRip]

Reply to topic
 
Author
Message

Meshanik ®

Gender:

Longevity: 9 years 6 months

Posts: 3866

Location: Los Angeles

Торрент-статистика

Post 09-Feb-2013 22:27

[Quote]

Кровинушка
- Русское название: Кровинушка
Оригинальное название: Кровинушка
Год выпуска: 2012
Производство: Россия, Студия "Гармония"
Жанр: мелодрама
Продолжительность: ~ 44 минуты серия
Перевод: не требуется
Субтитры: отсутствуют-Режиссер: Иван Агапов, Ольга Грекова
Продюсер: Юрий Беленький, Артур Хабаров
Оператор: Александр Гончаров, Виктор Шестопёров
В ролях: Марина Маняхина (София), Станислав Николаев (Сергей), Елена Лагута (Ольга), Диана Максимова (Галина), Дмитрий Варшавский (Михаил Вяземский), Аристарх Ливанов (Вяземский), Анатолий Завьялов (Гришка Зимовец), Татьяна Борисова (Оксана), Юрий Сазонов (муж Оксаны), Иван Непомнящий (Тарасик)- -Описание фильма:
В маленьком приморском городке расположена уникальная клиника «Надежда». Супруги Ольга и Сергей помогают женщинам забеременеть — лечат недуги, связанные с нарушениями репродуктивной системой, а так же младенческие патологии.
Они делают чудеса, помогая женщинам стать матерями, но по иронии судьбы сами не могут испытать счастье рождения родного ребенка — кровинушки.- -Качество видео: SATRip
Видеокодек: XviD
Битрейт видео: ~1550 kbps avg
Размер кадра: 704x400
Аудио: Русский, 48 kHz, AC3 Dolby Digital, 2/0 (L,R) ch, ~192 kbps-Внимание! Раздача ведётся путём добавления новых серий
Добавлены серии 14-31, просьба перекачать торрент файл
-

Внимание! Раздача ведётся путём добавления новых серий. Описание обновления торрента:

Внимание!
Раздача ведётся путём добавления новых серий; при каждом добавлении создётся новый торрент. Чтобы начать докачку новой серии, пользователям необходимо сделать следующее:
(1) остановить скачивание,
(2) удалить старый торрент у себя из клиента (старые серии удалять не надо),
(3) скачать новый торрент и запустить его у себя в клиенте вместо старого, при этом указать клиенту путь в старую папку куда и должно происходить скачивание новых серий.
Ваш клиент при этом должен произвести хеширование (проверку) старой папки (если не производит сам - помогите ему сделать это), и будет докачивать только те серии которых у вас ещё нет. Старые серии при этом не удаляются, а продолжают раздаваться!
Eсли вы уже удалили старые серии, то предотвратить повторную закачку старых серий можно, отжав галочку в соответсвующих местах при запуске нового торрента. По возможности, желательно не удалять старые серии как можно дольше чтобы релизёр не столько продолжал раздавать старые серии, а смог сконцентрироваться на новых.

MediaInfo

Общее
Полное имя : F:\Раздачи\Раздачи Обновляемые\Кровинушка (2012) SATRip\4 серия.avi
Формат : AVI
Формат/Информация : Audio Video Interleave
Размер файла : 547 Мбайт
Продолжительность : 43 м.
Общий поток : 1749 Кбит/сек
Программа кодирования : VirtualDubModRus 1.5.10.2 (build 2542/release)
Библиотека кодирования : VirtualDubMod build 2542/release
Видео
Идентификатор : 0
Формат : MPEG-4 Visual
Профиль формата : [email protected]
Параметр BVOP формата : Нет
Параметр QPel формата : Нет
Параметр GMC формата : Без точки перехода
Параметр матрицы формата : Default (H.263)
Идентификатор кодека : XVID
Идентификатор кодека/Подсказка : XviD
Продолжительность : 43 м.
Битрейт : 1547 Кбит/сек
Ширина : 704 пикселя
Высота : 400 пикселей
Соотношение сторон : 16:9
Частота кадров : 25,000 кадров/сек
Цветовое пространство : YUV
Субдискретизация насыщенности : 4:2:0
Битовая глубина : 8 бит
Тип развёртки : Прогрессивная
Метод сжатия : С потерями
Бит/(Пиксели*Кадры) : 0.220
Размер потока : 484 Мбайт (88%)
Библиотека кодирования : XviD 1.2.1 (UTC 2008-12-04)
Аудио
Идентификатор : 1
Формат : AC-3
Формат/Информация : Audio Coding 3
Расширение режима : CM (complete main)
Идентификатор кодека : 2000
Продолжительность : 43 м.
Вид битрейта : Постоянный
Битрейт : 192 Кбит/сек
Каналы : 2 канала
Расположение каналов : Front: L R
Частота : 48,0 КГц
Битовая глубина : 16 бит
Метод сжатия : С потерями
Размер потока : 60,0 Мбайт (11%)
Выравнивание : Соединение по промежуткам
Продолжительность промежутка : 40 мс. (1,00 видеокадр)
Время предзагрузки промежутка : 512 мс.
-Скриншоты:-          -

Ещё скриншоты...

         
-
Other forum [Profile] [PM]
Display posts from previous:    
Reply to topic

The time now is: Today 04:55

All times are GMT + 3 Hours



You cannot post new topics in this forum
You cannot reply to topics in this forum
You cannot edit your posts in this forum
You cannot delete your posts in this forum
You cannot vote in polls in this forum
You cannot attach files in this forum
You cannot download files in this forum