Today is a free download without charge Download

Кровинушка (Серии 1-230 из 230) (Иван Агапов, Ольга Грекова) [2011-2012, мелодрама, SATRip]

Reply to topic
 
Author
Message

Meshanik ®

Gender:

Longevity: 9 years 6 months

Posts: 3866

Location: Los Angeles

Торрент-статистика

Post 09-Feb-2013 22:11

[Quote]

Кровинушка -
Русское название: Кровинушка
Оригинальное название: Кровинушка
Год выпуска: 2011 – 2012
Страна: Россия
Жанр: мелодрама
Продолжительность: 00:43:31
Кол-во серий: 1-230 из 230
Перевод: Оригинал
Субтитры: Нет-Режиссер: Иван Агапов, Ольга Грекова
Продюсер: Юрий Беленький, Артур Хабаров
Оператор: Александр Гончаров, Виктор Шестопёров
В ролях: Марина Маняхина (София), Станислав Николаев (Сергей), Елена Лагута (Ольга), Диана Максимова (Галина), Дмитрий Варшавский (Михаил Вяземский), Аристарх Ливанов (Вяземский), Анатолий Завьялов (Гришка Зимовец), Татьяна Борисова (Оксана), Юрий Сазонов (муж Оксаны), Иван Непомнящий (Тарасик)- -Описание: В маленьком приморском городке расположена уникальная клиника «Надежда». Супруги Ольга и Сергей помогают женщинам забеременеть — лечат недуги, связанные с нарушениями репродуктивной системой, а так же младенческие патологии. Они делают чудеса, помогая женщинам стать матерями, но по иронии судьбы сами не могут испытать счастье рождения родного ребенка — кровинушки.-Премьера (мир): 6 февраля 2012
Премьера (РФ): 6 февраля 2012-Качество: SATRip
Формат: AVI
Видео кодек: DivX 5
Аудио кодеk: MP3
Видео: 704x400 (1.76:1), 25 fps, DivX Codec 6.8.5/6.9.1 ~1500 kbps avg, 0.21 bit/pixel
Аудио: Аудио #1: 48 kHz, MPEG Layer 3, 2 ch, ~128.00 kbps avg
-

MediaInfo

Код:
General
Complete name                    : Krovinuschka.(001.seriya.iz.250).2012.DivX.SATRip.avi
Format                           : AVI
Format/Info                      : Audio Video Interleave
File size                        : 510 MiB
Duration                         : 43mn 31s
Overall bit rate                 : 1 638 Kbps
Writing library                  : VirtualDub build 32842/release
Video
ID                               : 0
Format                           : MPEG-4 Visual
Format settings, BVOP            : Yes
Format settings, QPel            : No
Format settings, GMC             : No warppoints
Format settings, Matrix          : Default (H.263)
Muxing mode                      : Packed bitstream
Codec ID                         : DX50
Codec ID/Hint                    : DivX 5
Duration                         : 43mn 31s
Bit rate                         : 1 500 Kbps
Width                            : 704 pixels
Height                           : 400 pixels
Display aspect ratio             : 16:9
Frame rate                       : 25.000 fps
Color space                      : YUV
Chroma subsampling               : 4:2:0
Bit depth                        : 8 bits
Scan type                        : Progressive
Bits/(Pixel*Frame)               : 0.213
Stream size                      : 467 MiB (92%)
Writing library                  : DivX 6.8.5 (UTC 2009-08-20)
Audio
ID                               : 1
Format                           : MPEG Audio
Format version                   : Version 1
Format profile                   : Layer 3
Mode                             : Joint stereo
Mode extension                   : MS Stereo
Codec ID                         : 55
Codec ID/Hint                    : MP3
Duration                         : 43mn 31s
Bit rate mode                    : Constant
Bit rate                         : 128 Kbps
Channel(s)                       : 2 channels
Sampling rate                    : 48.0 KHz
Stream size                      : 39.9 MiB (8%)
Alignment                        : Split accross interleaves
Interleave, duration             : 40 ms (1.00 video frame)
Interleave, preload duration     : 500 ms
-

Скриншоты...

           
         
-
Other forum [Profile] [PM]
Display posts from previous:    
Reply to topic

The time now is: Today 18:28

All times are GMT + 3 Hours



You cannot post new topics in this forum
You cannot reply to topics in this forum
You cannot edit your posts in this forum
You cannot delete your posts in this forum
You cannot vote in polls in this forum
You cannot attach files in this forum
You cannot download files in this forum