Today is a free download without charge Download

Битва на ножах / Knife Fight (Билл Гуттентаг / Bill Guttentag) [2012, США, драма, BDRip 720p] [UNRATED] MVO + Original Eng

Reply to topic
 
Author
Message

Omen ®

Longevity: 8 years 5 months

Posts: 181087

Торрент-статистика

Post 09-Feb-2013 14:36

[Quote]

Битва на ножах / Knife Fight
Страна: США
Жанр: драма
Год выпуска: 2012
Продолжительность: 01:38:33
Перевод: Профессиональный (многоголосый закадровый)
Cубтитры: нет
Оригинальная аудиодорожка: английский
-
Режиссер: Билл Гуттентаг / Bill Guttentag
В ролях: Дженнифер Моррисон, Джейми Чунг, Джули Боуэн, Кэрри-Энн Мосс, Роб Лоу, Саффрон Берроуз, Аманда Крю, Эрик МакКормак, Ричард Шифф, Мишель Крусик
-
Описание: Современные политики — лишь вершина айсберга. За ними стоят большие деньги и опытные команды политтехнологов. Пол Тернер — лидер одной из таких команд. Его люди лучшие в своем деле, которым по силам превратить заурядного чиновника в настоящего героя нации. Их поле боя — выборы, их оружие — компроматы. Но разыгрывая свои хитроумные комбинации, Пол серьезно рискует и иногда ставит под удар судьбы других людей. Последняя его кампания обещает быть особенно жаркой. Полу необходимо удержаться на тонкой грани, чтобы добиться победы и не превратиться в холодного и расчетливого негодяя.

Тип релиза: BDRip 720p
Контейнер: MKV
Видео: H264 / NTSC 16:9 / 1280x720 (1,78:1) / ~4041 kbps / 23,976 fps / 0.183 bit/pixel / [email protected]
Аудио 1: Russian / AC3 / 44,1 kHz / 2 Ch / 192 kbps / 16 bit / MVO
Аудио 2: English / AC3 / 48 kHz / 5.1 Ch / 384 kbps / 16 bit / Original
Навигация по главам: есть

MediaInfo

Общее
Уникальный идентификатор : 208064974420845552863446728589445771966 (0x9C87DB4110090F1AB3EFB49AE50932BE)
Полное имя : C:\Knife Fight.2012.UNRATED.WEB-DL.720p.mkv
Формат : Matroska
Версия формата : Version 4 / Version 2
Размер файла : 3,24 Гбайт
Продолжительность : 1 ч. 38 м.
Общий поток : 4710 Кбит/сек
Дата кодирования : UTC 2013-02-09 06:10:20
Программа кодирования : mkvmerge v6.0.0 ('Coming Up For Air') built on Jan 20 2013 09:52:00
Библиотека кодирования : libebml v1.3.0 + libmatroska v1.4.0
Видео
Идентификатор : 1
Формат : AVC
Формат/Информация : Advanced Video Codec
Профиль формата : [email protected]
Параметр CABAC формата : Нет
Параметр ReFrames формата : 2 кадра
Идентификатор кодека : V_MPEG4/ISO/AVC
Продолжительность : 1 ч. 38 м.
Битрейт : 4041 Кбит/сек
Ширина : 1280 пикселей
Высота : 720 пикселей
Соотношение сторон : 16:9
Режим частоты кадров : Постоянный
Частота кадров : 23,976 кадра/сек
Цветовое пространство : YUV
Субдискретизация насыщенности : 4:2:0
Битовая глубина : 8 бит
Тип развёртки : Прогрессивная
Бит/(Пиксели*Кадры) : 0.183
Размер потока : 2,78 Гбайт (86%)
Язык : English
Default : Да
Forced : Нет
Основные цвета : BT.709
Характеристики трансфера : BT.709
Коэффициенты матрицы : BT.709
Аудио #1
Идентификатор : 2
Формат : AC-3
Формат/Информация : Audio Coding 3
Расширение режима : CM (complete main)
Параметр Endianness формата : Big
Идентификатор кодека : A_AC3
Продолжительность : 1 ч. 38 м.
Вид битрейта : Постоянный
Битрейт : 192 Кбит/сек
Каналы : 2 канала
Расположение каналов : Front: L R
Частота : 44,1 КГц
Битовая глубина : 16 бит
Метод сжатия : С потерями
Размер потока : 135 Мбайт (4%)
Заголовок : RUS
Язык : Russian
Default : Да
Forced : Нет
Аудио #2
Идентификатор : 3
Формат : AC-3
Формат/Информация : Audio Coding 3
Расширение режима : CM (complete main)
Параметр Endianness формата : Big
Идентификатор кодека : A_AC3
Продолжительность : 1 ч. 38 м.
Вид битрейта : Постоянный
Битрейт : 384 Кбит/сек
Каналы : 6 каналов
Расположение каналов : Front: L C R, Side: L R, LFE
Частота : 48,0 КГц
Битовая глубина : 16 бит
Метод сжатия : С потерями
Размер потока : 271 Мбайт (8%)
Заголовок : Original
Язык : English
Default : Нет
Forced : Нет
Меню
00:00:00.000 : en:Chapter 1
00:08:15.000 : en:Chapter 2
00:17:50.000 : en:Chapter 3
00:23:11.000 : en:Chapter 4
00:32:34.000 : en:Chapter 5
00:41:55.000 : en:Chapter 6
00:50:21.000 : en:Chapter 7
00:58:07.000 : en:Chapter 8
01:08:19.000 : en:Chapter 9
01:14:59.000 : en:Chapter 10
01:25:19.000 : en:Chapter 11
01:34:35.000 : en:Chapter 12

Скриншоты

Other forum [Profile] [PM]
Display posts from previous:    
Reply to topic

The time now is: Today 02:13

All times are GMT + 3 Hours



You cannot post new topics in this forum
You cannot reply to topics in this forum
You cannot edit your posts in this forum
You cannot delete your posts in this forum
You cannot vote in polls in this forum
You cannot attach files in this forum
You cannot download files in this forum