Today is a free download without charge Download

Discovery: Искусство кино (Лаборатория спецэффектов). Да будет с тобой сила: студия Skywalker Sound / Science of the Movies. The Force Is With You: Skywalker Sound (2009) HDTVRip [Сезон 2: эпизод 8]

Reply to topic
 
Author
Message

Omen ®

Longevity: 7 years 10 months

Posts: 181087

Торрент-статистика

Post 09-Feb-2013 13:32

[Quote]

-Discovery: Искусство кино (Лаборатория спецэффектов). Да будет с тобой сила: студия Skywalker Sound / Science of the Movies. The Force Is With You: Skywalker Sound (2009) HDTVRip [Сезон 2: эпизод 8]- Автор Rip'а: skorpionN
Русское название: Discovery: Искусство кино (Лаборатория спецэффектов). Да будет с тобой сила: студия Skywalker Sound
Оригинальное название: Science of the Movies. The Force Is With You: Skywalker Sound
Режиссер / Телекомпания: Discovery HD Showcase
Год выпуска: 2009
Жанр: Документальный
Описание:
Программа «Искусство кино» приглашает вас окунуться в невероятный мир технологии, скрытой за экраном кинотеатра. Энтузиаст и страстный любитель кино Нар Уильямс встречается с талантливыми специалистами, рассказывает о новаторской технологии и знакомит нас с невероятными методами, которые позволяют создавать захватывающие дух сцены в голливудских фильмах. Программа «Искусство кино» рассказывает о методах съемки и встречается с получившими престижные призы специалистами. Вы увидите самые последние камеры и то, как создается трехмерное изображение. «Искусство кино» — это редкие «кадры за кадром», совершенно по-новому рассказывающие о магии кино.
Продолжительность: 00:44:10
Перевод: Одноголосый закадровый, профессиональный
Видеокодек: Xvid
Битрейт видео: ~1800 kbps
Размер кадра: 720х400
Качество видео: HDTVRip
Аудиокодек: AC3, 6 ch.
Битрейт аудио: 192 kbps

MediaInfo:

Формат : AVI
Формат/Информация : Audio Video Interleave
Размер файла : 632 Мбайт
Продолжительность : 44 м.
Общий поток : 2001 Кбит/сек
Программа кодирования : VirtualDubMod 1.5.10.3 | www.virtualdub-fr.org || (build 2550/release)
Библиотека кодирования : VirtualDubMod build 2550/release
Видео
Идентификатор : 0
Формат : MPEG-4 Visual
Профиль формата : Advanced [email protected]
Параметр BVOP формата : 2
Параметр QPel формата : Да
Параметр GMC формата : 3 точки перехода
Параметр матрицы формата : Default (H.263)
Идентификатор кодека : XVID
Идентификатор кодека/Подсказка : XviD
Продолжительность : 44 м.
Битрейт : 1799 Кбит/сек
Ширина : 720 пикс.
Высота : 400 пикс.
Соотношение сторон : 16:9
Частота кадров : 25,000 кадр/сек
Цветовое пространство : YUV
Подвыборка цветности : 4:2:0
Битовая глубина : 8 бит
Тип развёртки : Прогрессивная
Метод сжатия : С потерями
Бит/(Пиксели*Кадры) : 0.250
Размер потока : 568 Мбайт (90%)
Библиотека кодирования : XviD 1.2.1 (UTC 2008-12-04)
Аудио
Идентификатор : 1
Формат : AC-3
Формат/Информация : Audio Coding 3
Расширение режима : CM (complete main)
Идентификатор кодека : 2000
Продолжительность : 44 м.
Вид битрейта : Постоянный
Битрейт : 192 Кбит/сек
Канал(ы) : 6 канала(ов)
Расположение каналов : Front: L C R, Side: L R, LFE
Частота : 48,0 КГц
Битовая глубина : 16 бит
Метод сжатия : С потерями
Размер потока : 60,7 Мбайт (10%)
Выравнивание : Разделение по промежуткам
Продолжительность промежутка : 40 мс. (1,00 видеокадр)
Время предзагрузки промежутка : 500 ms
Скриншоты:
         
         
Other forum [Profile] [PM]
Display posts from previous:    
Reply to topic

The time now is: Today 23:51

All times are GMT + 3 Hours



You cannot post new topics in this forum
You cannot reply to topics in this forum
You cannot edit your posts in this forum
You cannot delete your posts in this forum
You cannot vote in polls in this forum
You cannot attach files in this forum
You cannot download files in this forum