Today is a free download without charge Download

Высоцкий. Четыре часа настоящей жизни (2012) BDRip [1-4 серии из 4]

Reply to topic
 
Author
Message

Omen ®

Longevity: 9 years

Posts: 181086

Торрент-статистика

Post 09-Feb-2013 11:56

[Quote]

-Высоцкий. Четыре часа настоящей жизни (2012) BDRip [1-4 серии из 4]- Русское название: Высоцкий. Четыре часа настоящей жизни
Производство: Россия
Год выпуска: 2012
Жанр: Драма, биография
Возраст: 16+ |зрителям, достигшим 16 лет|
Релиз группа:

Дата выхода Blu-Ray релиза: 24 января 2013
Дата выхода DVD релиза: 26 марта 2013
Режиссер: Петр Буслов
Актеры: Оксана Акиньшина, Сергей Безруков, Андрей Смоляков, Иван Ургант, Андрей Панин, Дмитрий Астрахан, Анна Ардова, Владимир Ильин, Максим Леонидов, Сергей Шакуров
Описание фильма:
Фильм рассказывает об одном из наиболее драматичных периодов жизни Владимира Высоцкого. Мы застаем героя на пике известности. В конце 70-х Высоцкий — самый знаменитый человек в СССР, кумир миллионов. Но его силы на исходе. Он измотан, он больше не ощущает свой дар, он не может писать стихи…
Продолжительность: 4 x ~ 00:50:30
Качество видео: BDRip
Видеокодек: Xvid
Битрейт видео: ~1724 Кбит/сек
Размер кадра: 720х304
Аудиокодек: AC3 6 каналов
Битрейт аудио: 448 Кбит/сек

MediaInfo:

Общее
Полное имя : Vysotsky.4.chasa.nastoyazhej.jizni.2012.BDRip\Thumbs.db
Размер файла : 13,5 Кбайт
Общее
Полное имя : Vysotsky.4.chasa.nastoyazhej.jizni.2012.BDRip\Vysotsky.4.chasa.nastoyazhej.jizni.1.seriya.2012.XviD.BDRip.avi
Формат : AVI
Формат/Информация : Audio Video Interleave
Размер файла : 779 Мбайт
Продолжительность : 49 м.
Общий поток : 2181 Кбит/сек
Название фильма : Высоцкий. Четыре часа настоящей жизни (2012)
Режиссёр : Release by ==nnlabetik==
Программа кодирования : VirtualDubMod 1.5.10.2 (build 2540/release)
Библиотека кодирования : VirtualDubMod build 2540/release
Видео
Идентификатор : 0
Формат : MPEG-4 Visual
Профиль формата : Advanced [email protected]
Параметр BVOP формата : 1
Параметр QPel формата : Нет
Параметр GMC формата : Без точки перехода
Параметр матрицы формата : Выборочная
Идентификатор кодека : XVID
Идентификатор кодека/Подсказка : XviD
Продолжительность : 49 м.
Битрейт : 1724 Кбит/сек
Ширина : 720 пикселей
Высота : 304 пикселя
Соотношение сторон : 2,35:1
Частота кадров : 24,000 кадра/сек
Цветовое пространство : YUV
Субдискретизация насыщенности : 4:2:0
Битовая глубина : 8 бит
Тип развёртки : Прогрессивная
Метод сжатия : С потерями
Бит/(Пиксели*Кадры) : 0.328
Размер потока : 616 Мбайт (79%)
Библиотека кодирования : XviD 1.2.1 (UTC 2008-12-04)
Аудио
Идентификатор : 1
Формат : AC-3
Формат/Информация : Audio Coding 3
Расширение режима : CM (complete main)
Параметр Endianness формата : Big
Идентификатор кодека : 2000
Продолжительность : 49 м.
Вид битрейта : Постоянный
Битрейт : 448 Кбит/сек
Каналы : 6 каналов
Расположение каналов : Front: L C R, Side: L R, LFE
Частота : 48,0 КГц
Битовая глубина : 16 бит
Метод сжатия : С потерями
Задержка видео : 29 мс.
Размер потока : 160 Мбайт (21%)
Выравнивание : Разделение по промежуткам
Продолжительность промежутка : 42 мс. (1,00 видеокадр)
Время предзагрузки промежутка : 500 мс.
Общее
Полное имя : Vysotsky.4.chasa.nastoyazhej.jizni.2012.BDRip\Vysotsky.4.chasa.nastoyazhej.jizni.2.seriya.2012.XviD.BDRip.avi
Формат : AVI
Формат/Информация : Audio Video Interleave
Размер файла : 897 Мбайт
Продолжительность : 52 м.
Общий поток : 2393 Кбит/сек
Название фильма : Высоцкий. Четыре часа настоящей жизни (2012)
Режиссёр : Release by ==nnlabetik==
Программа кодирования : VirtualDubMod 1.5.10.2 (build 2540/release)
Библиотека кодирования : VirtualDubMod build 2540/release
Видео
Идентификатор : 0
Формат : MPEG-4 Visual
Профиль формата : Advanced [email protected]
Параметр BVOP формата : 1
Параметр QPel формата : Нет
Параметр GMC формата : Без точки перехода
Параметр матрицы формата : Выборочная
Идентификатор кодека : XVID
Идентификатор кодека/Подсказка : XviD
Продолжительность : 52 м.
Битрейт : 1936 Кбит/сек
Ширина : 720 пикселей
Высота : 304 пикселя
Соотношение сторон : 2,35:1
Частота кадров : 24,000 кадра/сек
Цветовое пространство : YUV
Субдискретизация насыщенности : 4:2:0
Битовая глубина : 8 бит
Тип развёртки : Прогрессивная
Метод сжатия : С потерями
Бит/(Пиксели*Кадры) : 0.368
Размер потока : 726 Мбайт (81%)
Библиотека кодирования : XviD 1.2.1 (UTC 2008-12-04)
Аудио
Идентификатор : 1
Формат : AC-3
Формат/Информация : Audio Coding 3
Расширение режима : CM (complete main)
Параметр Endianness формата : Big
Идентификатор кодека : 2000
Продолжительность : 52 м.
Вид битрейта : Постоянный
Битрейт : 448 Кбит/сек
Каналы : 6 каналов
Расположение каналов : Front: L C R, Side: L R, LFE
Частота : 48,0 КГц
Битовая глубина : 16 бит
Метод сжатия : С потерями
Задержка видео : 22 мс.
Размер потока : 168 Мбайт (19%)
Выравнивание : Разделение по промежуткам
Продолжительность промежутка : 42 мс. (1,00 видеокадр)
Время предзагрузки промежутка : 500 мс.
Общее
Полное имя : Vysotsky.4.chasa.nastoyazhej.jizni.2012.BDRip\Vysotsky.4.chasa.nastoyazhej.jizni.3.seriya.2012.XviD.BDRip.avi
Формат : AVI
Формат/Информация : Audio Video Interleave
Размер файла : 841 Мбайт
Продолжительность : 49 м.
Общий поток : 2363 Кбит/сек
Название фильма : Высоцкий. Четыре часа настоящей жизни (2012)
Режиссёр : Release by ==nnlabetik==
Программа кодирования : VirtualDubMod 1.5.10.2 (build 2540/release)
Библиотека кодирования : VirtualDubMod build 2540/release
Видео
Идентификатор : 0
Формат : MPEG-4 Visual
Профиль формата : Advanced [email protected]
Параметр BVOP формата : 1
Параметр QPel формата : Нет
Параметр GMC формата : Без точки перехода
Параметр матрицы формата : Выборочная
Идентификатор кодека : XVID
Идентификатор кодека/Подсказка : XviD
Продолжительность : 49 м.
Битрейт : 1906 Кбит/сек
Ширина : 720 пикселей
Высота : 304 пикселя
Соотношение сторон : 2,35:1
Частота кадров : 24,000 кадра/сек
Цветовое пространство : YUV
Субдискретизация насыщенности : 4:2:0
Битовая глубина : 8 бит
Тип развёртки : Прогрессивная
Метод сжатия : С потерями
Бит/(Пиксели*Кадры) : 0.363
Размер потока : 678 Мбайт (81%)
Библиотека кодирования : XviD 1.2.1 (UTC 2008-12-04)
Аудио
Идентификатор : 1
Формат : AC-3
Формат/Информация : Audio Coding 3
Расширение режима : CM (complete main)
Параметр Endianness формата : Big
Идентификатор кодека : 2000
Продолжительность : 49 м.
Вид битрейта : Постоянный
Битрейт : 448 Кбит/сек
Каналы : 6 каналов
Расположение каналов : Front: L C R, Side: L R, LFE
Частота : 48,0 КГц
Битовая глубина : 16 бит
Метод сжатия : С потерями
Задержка видео : 7 мс.
Размер потока : 159 Мбайт (19%)
Выравнивание : Разделение по промежуткам
Продолжительность промежутка : 42 мс. (1,00 видеокадр)
Время предзагрузки промежутка : 500 мс.
Общее
Полное имя : Vysotsky.4.chasa.nastoyazhej.jizni.2012.BDRip\Vysotsky.4.chasa.nastoyazhej.jizni.4.seriya.2012.XviD.BDRip.avi
Формат : AVI
Формат/Информация : Audio Video Interleave
Размер файла : 754 Мбайт
Продолжительность : 49 м.
Общий поток : 2108 Кбит/сек
Название фильма : Высоцкий. Четыре часа настоящей жизни (2012)
Режиссёр : Release by ==nnlabetik==
Программа кодирования : VirtualDubMod 1.5.10.2 (build 2540/release)
Библиотека кодирования : VirtualDubMod build 2540/release
Видео
Идентификатор : 0
Формат : MPEG-4 Visual
Профиль формата : Advanced [email protected]
Параметр BVOP формата : 1
Параметр QPel формата : Нет
Параметр GMC формата : Без точки перехода
Параметр матрицы формата : Выборочная
Идентификатор кодека : XVID
Идентификатор кодека/Подсказка : XviD
Продолжительность : 49 м.
Битрейт : 1650 Кбит/сек
Ширина : 720 пикселей
Высота : 304 пикселя
Соотношение сторон : 2,35:1
Частота кадров : 24,000 кадра/сек
Цветовое пространство : YUV
Субдискретизация насыщенности : 4:2:0
Битовая глубина : 8 бит
Тип развёртки : Прогрессивная
Метод сжатия : С потерями
Бит/(Пиксели*Кадры) : 0.314
Размер потока : 590 Мбайт (78%)
Библиотека кодирования : XviD 1.2.1 (UTC 2008-12-04)
Аудио
Идентификатор : 1
Формат : AC-3
Формат/Информация : Audio Coding 3
Расширение режима : CM (complete main)
Параметр Endianness формата : Big
Идентификатор кодека : 2000
Продолжительность : 49 м.
Вид битрейта : Постоянный
Битрейт : 448 Кбит/сек
Каналы : 6 каналов
Расположение каналов : Front: L C R, Side: L R, LFE
Частота : 48,0 КГц
Битовая глубина : 16 бит
Метод сжатия : С потерями
Задержка видео : 5 мс.
Размер потока : 160 Мбайт (21%)
Выравнивание : Разделение по промежуткам
Продолжительность промежутка : 42 мс. (1,00 видеокадр)
Время предзагрузки промежутка : 500 мс.

Info:

Четырехсерийная телеверсия фильма "Высоцкий. Спасибо, что живой"
Издатель: Дирекция кино
Дистрибьютор: Флагман-трейд
Год выхода издания: 2012
Скриншоты:
       
       
Other forum [Profile] [PM]
Similar theme
Forum Topic Author Torrent Replies Last Post
./templates/default/images/folder_dl.gif Кулинария Ю.А. Высоцкая | Быстрые завтраки (2012) [PDF] }{@R0N
1 | 0

0 | 1700

4

2018-02-11 21:01
}{@R0N Latest
Display posts from previous:    
Reply to topic

The time now is: Today 18:29

All times are GMT + 3 Hours



You cannot post new topics in this forum
You cannot reply to topics in this forum
You cannot edit your posts in this forum
You cannot delete your posts in this forum
You cannot vote in polls in this forum
You cannot attach files in this forum
You cannot download files in this forum