Today is a free download without charge Download

Дикий, дикий Запад / Wild Wild West (Барри Зонненфельд / Barry Sonnenfeld) [ 1999 , США , фантастика, боевик, комедия , BDRip 1080p ]

Reply to topic
 
Author
Message

Delia ®

Gender:

Longevity: 11 years

Posts: 1821

Торрент-статистика

Post 09-Feb-2013 11:40

[Quote]

-Дикий, дикий ЗападWild Wild West«It's a whole new west. July '99.»-- Год выпуска: 1999
Страна: США
Жанр: фантастика, боевик, комедия, вестерн
Продолжительность: 01:46:00
Перевод: Профессиональный (полное дублирование)
Режиссер: Барри Зонненфельд / Barry Sonnenfeld В ролях: Уилл Смит (Capt. James West), Кевин Клайн (U.S. Marshal Artemus Gordon / Ulysses S. Grant), Кеннет Брэна (Dr. Arliss Loveless), Сальма Хайек (Rita Escobar), М. Эммет Уолш (Coleman), Тед Левайн (General 'Bloodbath' McGrath), Фредерик ван дер Вал (Amazonia), Музетта Вандер (Munitia), София Энг (Miss Lippenrieder), Бай Лин (Miss East), Гарсель Бове (Belle), Майк Х. МакГохи (Big Reb)-Описание: Два суперагента 70-х годов позапрошлого века, располагающие технологическими штучками, спасают президента США Гранта от злодея-изобретателя Лавлэйса, ведущего борьбу за обладание южными штатами. Обозленный на весь мир, безногий калека при отсутствии детородного органа окружил себя целым гаремом красавиц, чем, вероятно, постоянно поддерживал в себе накал ненависти.
Один из суперагентов - лихой и обаятельный чернокожий стрелок Джим Уэст, а другой - Артемус Гордон, белый джентльмен с манерами англичанина. На их стороне и знойная красотка Рита, плененная гигантским механическим пауком.
-
MPAA: - Детям до 13 лет просмотр не желателен--
Качество: BDRip1080p
Контейнер: MKV
Видео: AVC, 1920x1080 (16:9), 9970 kbps, 23,976 fps, 0,201 bpp
Аудио №1: русский /; AC3 /; 5.1 /; 48 kHz /; 384 kbps /; 16 bit;
Аудио №2: английский /; AC3 /; 5.1 /; 48 kHz /; 384 kbps /; 16 bit
Субтитры №1: русские
Субтитры №2: английские
Навигация по главам: есть
--

Media Info

General
Unique ID : 174522203204006502473435337752841502627 (0x834BC0F335FA115C9B185B736EF33FA3)
Complete name : E:\Dikiy.dikiy.Zapad.1999.1080p.F-HD .mkv
Format : Matroska
Format version : Version 2
File size : 7.95 GiB
Duration : 1h 46mn
Overall bit rate : 10.7 Mbps
Encoded date : UTC 2013-02-09 07:45:58
Writing application : mkvmerge v5.4.0 ('Piper') built on Mar 10 2012 13:34:39
Writing library : libebml v1.2.3 + libmatroska v1.3.0
Video
ID : 1
Format : AVC
Format/Info : Advanced Video Codec
Format profile : [email protected]
Format settings, CABAC : Yes
Format settings, ReFrames : 4 frames
Codec ID : V_MPEG4/ISO/AVC
Duration : 1h 46mn
Bit rate : 9 970 Kbps
Width : 1 920 pixels
Height : 1 080 pixels
Display aspect ratio : 16:9
Frame rate : 23.976 fps
Color space : YUV
Chroma subsampling : 4:2:0
Bit depth : 8 bits
Scan type : Progressive
Bits/(Pixel*Frame) : 0.201
Stream size : 7.22 GiB (91%)
Writing library : x264 core 129 r2230 1cffe9f
Encoding settings : cabac=1 / ref=4 / deblock=1:-2:-2 / analyse=0x3:0x113 / me=umh / subme=10 / psy=1 / psy_rd=1.00:0.07 / mixed_ref=1 / me_range=42 / chroma_me=1 / trellis=2 / 8x8dct=1 / cqm=0 / deadzone=21,11 / fast_pskip=0 / chroma_qp_offset=-3 / threads=6 / lookahead_threads=1 / sliced_threads=0 / nr=0 / decimate=1 / interlaced=0 / bluray_compat=0 / constrained_intra=0 / bframes=8 / b_pyramid=2 / b_adapt=2 / b_bias=0 / direct=3 / weightb=1 / open_gop=0 / weightp=2 / keyint=240 / keyint_min=23 / scenecut=40 / intra_refresh=0 / rc=2pass / mbtree=0 / bitrate=9970 / ratetol=1.0 / qcomp=0.70 / qpmin=0 / qpmax=69 / qpstep=4 / cplxblur=20.0 / qblur=0.5 / ip_ratio=1.40 / pb_ratio=1.30 / aq=2:0.70
Language : English
Default : Yes
Forced : No
Color primaries : BT.709-5, BT.1361, IEC 61966-2-4, SMPTE RP177
Transfer characteristics : BT.709-5, BT.1361
Matrix coefficients : BT.709-5, BT.1361, IEC 61966-2-4 709, SMPTE RP177
Audio #1
ID : 2
Format : AC-3
Format/Info : Audio Coding 3
Mode extension : CM (complete main)
Codec ID : A_AC3
Duration : 1h 46mn
Bit rate mode : Constant
Bit rate : 384 Kbps
Channel(s) : 6 channels
Channel positions : Front: L C R, Side: L R, LFE
Sampling rate : 48.0 KHz
Bit depth : 16 bits
Compression mode : Lossy
Stream size : 291 MiB (4%)
Language : Russian
Default : Yes
Forced : No
Audio #2
ID : 3
Format : AC-3
Format/Info : Audio Coding 3
Mode extension : CM (complete main)
Codec ID : A_AC3
Duration : 1h 46mn
Bit rate mode : Constant
Bit rate : 384 Kbps
Channel(s) : 6 channels
Channel positions : Front: L C R, Side: L R, LFE
Sampling rate : 48.0 KHz
Bit depth : 16 bits
Compression mode : Lossy
Stream size : 291 MiB (4%)
Language : English
Default : No
Forced : No
Text #1
ID : 4
Format : UTF-8
Codec ID : S_TEXT/UTF8
Codec ID/Info : UTF-8 Plain Text
Language : Russian
Default : No
Forced : No
Text #2
ID : 5
Format : UTF-8
Codec ID : S_TEXT/UTF8
Codec ID/Info : UTF-8 Plain Text
Language : English
Default : No
Forced : No
Menu
00:00:00.000 : en:01. Not So Smart
00:01:02.645 : en:02. Credits
00:03:14.694 : en:03. Water Sport
00:06:13.790 : en:04. She Works Alone
00:07:55.975 : en:05. Uneasy Rider
00:10:41.891 : en:06. Bad Rescue Timing (Arise)
00:14:42.715 : en:07. Presidential Orders
00:19:42.431 : en:08. Settling This Like Men
00:23:10.806 : en:09. Morton's Eye View
00:25:12.385 : en:10. Felling Each Other's
00:28:01.096 : en:11. Coming-Out Party
00:33:22.208 : en:12. Picture-Perfect Aim
00:36:49.540 : en:13. Two Rescues..
00:42:11.362 : en:14. Mcgrath's Last Stand
00:46:35.167 : en:15. The Devil Responsible
00:49:46.608 : en:16. Another Passenger
00:55:16.438 : en:17. Track Attack
00:59:58.511 : en:18. Neck and Neck
01:04:30.992 : en:19. Mutual Attraction
01:07:34.008 : en:20. Score to Settle
01:09:09.395 : en:21. An Invention That Works
01:13:22.981 : en:22. Along Came a Spider
01:16:49.563 : en:23. Divided States
01:19:22.424 : en:24. The New Girl
01:24:44.329 : en:25. Air Gordon
01:26:36.608 : en:26. Like a Desert Wasp
01:28:25.383 : en:27. Whuppin' Down Below
01:32:09.190 : en:28. Two Legs More
01:35:49.535 : en:29. Hanging Tough
01:37:51.866 : en:30. Each Other
01:40:42.453 : en:31. End Credits

Знаете ли Вы, что...

  • Реальный президент Грант не присутствовал при открытии железной дороги в Юте (связавшей восточное и западное побережья США), показанном в фильме.
  • В сцене, где Арлисс Лавлесс стреляет в генерала Макграта, виден кадр, когда собака сидит около искуственного уха генерала, выполненного в виде миниатюрной граммофонной трубы - аллюзия на эмблему звукозаписывающей компании ЕМI.
  • Механический паук был cпародирован в одной из сериий «Симпсонов».
  • Джордж Клуни изначально был запланирован на роль Артемуса Гордона, но отказался, так как эта роль не была основной.


Скриншоты

       
     

_________________
Человек – это канат, натянутый между животным и сверхчеловеком, – канат над пропастью.
В человеке ценно то, что он мост, а не цель. Фридрих Ницше
Other forum [Profile] [PM]
Similar theme
Forum Topic Author Torrent Replies Last Post
./templates/default/images/folder_dl.gif Шрифты 37 ttf супер шрифтов в стиле "Дикий Запад" Omen
1 | 0

0 | 2500

28

2012-12-07 21:37
Omen Latest
Display posts from previous:    
Reply to topic

The time now is: Today 20:14

All times are GMT + 3 Hours



You cannot post new topics in this forum
You cannot reply to topics in this forum
You cannot edit your posts in this forum
You cannot delete your posts in this forum
You cannot vote in polls in this forum
You cannot attach files in this forum
You cannot download files in this forum