Today is a free download without charge Download

Ночь вампиров / Покинутые / Пропащий / The Forsaken (Джей С. Кардоун / J. S. Cardone) [2001, США, ужасы, триллер, WEB-DL 720p] MVO + DVO (Ukr) + Sub Rus + Original Eng

Reply to topic
 
Author
Message

Omen ®

Longevity: 8 years 5 months

Posts: 181087

Торрент-статистика

Post 09-Feb-2013 02:20

[Quote]

Ночь вампиров / Покинутые / Пропащий / The Forsaken- Страна: США
Жанр: ужасы, триллер
Год выпуска: 2001
Продолжительность: 01:30:04
Перевод 1: Профессиональный (многоголосый закадровый)
Перевод 2: Профессиональный (двухголосый закадровый) - украинский
Cубтитры: русские
Оригинальная аудиодорожка: английский-Режиссер: Джей С. Кардоун / J. S. Cardone
В ролях: Керр Смит /Kerr Smith/, Брендан Фер /Brendan Fehr/, Изабелла Мико /Izabella Miko/, Джонатон Шаех /Johnathon Schaech/, Фина Оруче /Phina Oruche/, Саймон Рекс /Simon Rex/, Кэрри Снодгресс /Carrie Snodgress/, Алексис Торпе /Alexis Thorpe/, Ф.Дж. Флинн /F.J. Flynn/, Бет Энн Стайн /Beth Ann Styne/-Описание: Когда Шон согласился перегнать с одного конца страны на другой шикарный “Мерседес”, он думал, что это будет непыльная работенка. Как же жестоко он ошибался… Подобрав на дороге безобидного на вид попутчика, герой разом перечеркнул все свои надежды на легкое путешествие. Незнакомец оказался охотником за вампирами! И теперь Шон волей-неволей оказывается втянут в кровавое приключение, которое легко может стоить ему жизни – бескомпромиссную битву с бандой жестоких и хитрых вурдалаков, промышляющих на трассе. Отступать поздно: когда в пути тебя застает ночь проклятых, остается только одно – сражаться до последнего. Даже если знаешь, что шанс дожить до утра человеком - один из тысячи .-Тип релиза: WEB-DL 720p
Контейнер: MKV
Видео: AVC, 1280x718, ~4000 kbps, 23.976 fps
Аудио 1: AC3, 48000 Hz, 448 Kbps, 6 channels - MVO (Rus)
Аудио 2: AC3, 48000 Hz, 192 Kbps, 2 channels - DVO (Ukr) Интер
Аудио 3: AC3, 48000 Hz, 384 Kbps, 6 channels - Original (Eng)
Формат субтитров: softsub (SRT) - русские- -

Скриншоты


Резервные скриншоты



-

MediaInfo

Format : Matroska
Format version : Version 4 / Version 2
File size : 3.21 GiB
Duration : 1h 30mn
Overall bit rate : 5 071 Kbps
Movie name : Ночь вампиров / Покинутые / Пропащий / The Forsaken (2001) WEB-DL 720p
Encoded date : UTC 2013-02-04 17:42:44
Writing application : mkvmerge v6.0.0 ('Coming Up For Air') built on Jan 20 2013 09:52:00
Writing library : libebml v1.3.0 + libmatroska v1.4.0
Attachment : Yes
Video
ID : 1
Format : AVC
Format/Info : Advanced Video Codec
Format profile : [email protected]
Format settings, CABAC : No
Format settings, ReFrames : 2 frames
Codec ID : V_MPEG4/ISO/AVC
Duration : 1h 30mn
Bit rate : 3 946 Kbps
Width : 1 280 pixels
Height : 718 pixels
Display aspect ratio : 16:9
Frame rate : 23.976 fps
Color space : YUV
Chroma subsampling : 4:2:0
Bit depth : 8 bits
Scan type : Progressive
Bits/(Pixel*Frame) : 0.179
Stream size : 2.50 GiB (78%)
Language : English
Default : Yes
Forced : No
Color primaries : BT.709-5, BT.1361, IEC 61966-2-4, SMPTE RP177
Transfer characteristics : BT.709-5, BT.1361
Matrix coefficients : BT.709-5, BT.1361, IEC 61966-2-4 709, SMPTE RP177
Audio #1
ID : 2
Format : AC-3
Format/Info : Audio Coding 3
Mode extension : CM (complete main)
Codec ID : A_AC3
Duration : 1h 30mn
Bit rate mode : Constant
Bit rate : 448 Kbps
Channel(s) : 6 channels
Channel positions : Front: L C R, Side: L R, LFE
Sampling rate : 48.0 KHz
Bit depth : 16 bits
Compression mode : Lossy
Stream size : 291 MiB (9%)
Language : Russian
Default : Yes
Forced : No
Audio #2
ID : 3
Format : AC-3
Format/Info : Audio Coding 3
Mode extension : CM (complete main)
Codec ID : A_AC3
Duration : 1h 30mn
Bit rate mode : Constant
Bit rate : 192 Kbps
Channel(s) : 2 channels
Channel positions : Front: L R
Sampling rate : 48.0 KHz
Bit depth : 16 bits
Compression mode : Lossy
Stream size : 125 MiB (4%)
Language : Ukrainian
Default : No
Forced : No
Audio #3
ID : 4
Format : AC-3
Format/Info : Audio Coding 3
Mode extension : CM (complete main)
Codec ID : A_AC3
Duration : 1h 30mn
Bit rate mode : Constant
Bit rate : 384 Kbps
Channel(s) : 6 channels
Channel positions : Front: L C R, Side: L R, LFE
Sampling rate : 48.0 KHz
Bit depth : 16 bits
Compression mode : Lossy
Stream size : 249 MiB (8%)
Language : English
Default : No
Forced : No
Text
ID : 5
Format : UTF-8
Codec ID : S_TEXT/UTF8
Codec ID/Info : UTF-8 Plain Text
Language : Russian
Default : No
Forced : No
Menu
00:00:00.000 : en:Start
00:04:44.000 : en:One week vacation
00:07:34.000 : en:Flat broke
00:11:58.000 : en:Nick
00:13:31.000 : en:Rules of the road
00:16:03.000 : en:Bloodletters
00:18:42.000 : en:Dinner conversation
00:22:44.000 : en:The Palms Inn
00:25:06.000 : en:Private party
00:28:14.000 : en:Infected by a virus
00:33:08.000 : en:Seeing is believing
00:34:58.000 : en:Check-out time
00:36:49.000 : en:The Hunter
00:38:59.000 : en:Smoking Smokey
00:41:44.000 : en:Homing device
00:43:13.000 : en:The read deal
00:47:23.000 : en:"It's them!"
00:55:11.000 : en:Time to die
01:00:50.000 : en:Playing chicken
01:02:02.000 : en:Squeeze play
01:03:56.000 : en:Ina Hamm
01:07:09.000 : en:Arizona bloodbath
01:10:37.000 : en:Under siege
01:14:25.000 : en:"Come to Daddy, boys."
01:16:41.000 : en:Kit's new day driver
01:18:42.000 : en:Unfinished business
01:19:38.000 : en:Last stand
01:23:50.000 : en:The Hunters

-
--
Other forum [Profile] [PM]
Display posts from previous:    
Reply to topic

The time now is: Today 01:36

All times are GMT + 3 Hours



You cannot post new topics in this forum
You cannot reply to topics in this forum
You cannot edit your posts in this forum
You cannot delete your posts in this forum
You cannot vote in polls in this forum
You cannot attach files in this forum
You cannot download files in this forum