Today is a free download without charge Download

Одинокий волк (Александр Кулямин) (1-20 серии из 24) [2012.., Россия, Боевик, детектив, SATRip [Обновляемая]

Reply to topic
 
Author
Message

Meshanik ®

Gender:

Longevity: 9 years 6 months

Posts: 3866

Location: Los Angeles

Торрент-статистика

Post 08-Feb-2013 21:12

[Quote]

Одинокий волк- Русское название: Одинокий волк
Год выпуска: 2012
Производство: Россия
Жанр: Боевик, детектив
Продолжительность: ~ 00:42:00 серия
Перевод: Не требуется [Оригинал]
Субтитры: Нет-Режиссер: Александр Кулямин
Продюсер: Григорий Любомиров
В ролях: Максим Щёголев, Геннадий Шныптев, Дмитрий Митюрич, Владимир Лысенко, Иннокентий Тарабара, Алёна Олькина, Карина Реука, Бесо Гатаев, Виктор Балабанов, Анна Потапова, Надежда Бахтина, Валерий Николаев, Игорь Верник, Алексей Секирин, Максим Дрозд, Евдокия Чумакова, Анна Кузьмина, Ольга Житник, Антон Торопов, Виктория Куликова
Описание фильма:
Трудно жить с человеком, у которого чрезвычайно сложный характер, которого никто не может сломать и ущемить, который ни перед каким предлогом не уступает и не идет даже на самые небольшие поступки.
В народе подобных людей называют волками. Однако как часто случается, их никто не окружаетособо, поскольку они одинокие волки. Это история о сильном, мужественно и временами сложном характере.- -Качество видео: SATRip
Видеокодек: DivX 5
Битрейт видео: ~ 1500 Кбит/сек
Размер кадра: 720x400
Аудио: Русский, МР3, 2 ch, 192 Кбит/с-

MediaInfo...

Код:
Общее
Полное имя                               : E:\Раздачи\Обновляемые\Одинокий волк\Odinokij.volk.01.SATRip.avi
Формат                                   : AVI
Формат/Информация                        : Audio Video Interleave
Размер файла                             : 495 Мбайт
Продолжительность                        : 42 м.
Общий поток                              : 1638 Кбит/сек
Библиотека кодирования                   : VirtualDub build 32842/release
Видео
Идентификатор                            : 0
Формат                                   : MPEG-4 Visual
Параметр BVOP формата                    : 1
Параметр QPel формата                    : Нет
Параметр GMC формата                     : Без точки перехода
Параметр матрицы формата                 : Default (H.263)
Режим смешивания                         : Сжатый битовый поток
Идентификатор кодека                     : DX50
Идентификатор кодека/Подсказка           : DivX 5
Продолжительность                        : 42 м.
Битрейт                                  : 1501 Кбит/сек
Ширина                                   : 720 пикселей
Высота                                   : 400 пикселей
Соотношение сторон                       : 16:9
Частота кадров                           : 25,000 кадров/сек
Цветовое пространство                    : YUV
Субдискретизация насыщенности            : 4:2:0
Битовая глубина                          : 8 бит
Тип развёртки                            : Прогрессивная
Метод сжатия                             : С потерями
Бит/(Пиксели*Кадры)                      : 0.208
Размер потока                            : 453 Мбайт (92%)
Библиотека кодирования                   : DivX 6.8.5 (UTC 2009-08-20)
Аудио
Идентификатор                            : 1
Формат                                   : MPEG Audio
Версия формата                           : Version 1
Профиль формата                          : Layer 3
Режим                                    : Joint stereo
Расширение режима                        : MS Stereo
Идентификатор кодека                     : 55
Идентификатор кодека/Подсказка           : MP3
Продолжительность                        : 42 м.
Вид битрейта                             : Постоянный
Битрейт                                  : 128 Кбит/сек
Каналы                                   : 2 канала
Частота                                  : 48,0 КГц
Метод сжатия                             : С потерями
Размер потока                            : 38,7 Мбайт (8%)
Выравнивание                             : Разделение по промежуткам
Продолжительность промежутка             : 40  мс. (1,00 видеокадр)
Время предзагрузки промежутка            : 500  мс.
-

Внимание! Раздача ведётся путём добавления новых серий. Описание обновления торрента:

Внимание!
Раздача ведётся путём добавления новых серий; при каждом добавлении создётся новый торрент. Чтобы начать докачку новой серии, пользователям необходимо сделать следующее:
(1) остановить скачивание,
(2) удалить старый торрент у себя из клиента (старые серии удалять не надо),
(3) скачать новый торрент и запустить его у себя в клиенте вместо старого, при этом указать клиенту путь в старую папку куда и должно происходить скачивание новых серий.
Ваш клиент при этом должен произвести хеширование (проверку) старой папки (если не производит сам - помогите ему сделать это), и будет докачивать только те серии которых у вас ещё нет. Старые серии при этом не удаляются, а продолжают раздаваться!
Eсли вы уже удалили старые серии, то предотвратить повторную закачку старых серий можно, отжав галочку в соответсвующих местах при запуске нового торрента. По возможности, желательно не удалять старые серии как можно дольше чтобы релизёр не столько продолжал раздавать старые серии, а смог сконцентрироваться на новых.
-Скриншоты:-          -

Ещё скриншоты...

         
Other forum [Profile] [PM]
Display posts from previous:    
Reply to topic

The time now is: Today 16:52

All times are GMT + 3 Hours



You cannot post new topics in this forum
You cannot reply to topics in this forum
You cannot edit your posts in this forum
You cannot delete your posts in this forum
You cannot vote in polls in this forum
You cannot attach files in this forum
You cannot download files in this forum