Today is a free download without charge Download

Заложница 2 / Taken 2 (Оливье Мегатон) (Боевик,триллер,криминал.2012) BDRip 720p

Reply to topic
 
Author
Message

KirovSOFT ®

Gender:

Longevity: 9 years

Posts: 998

Location: Кировская область -Оричи

Торрент-статистика

Post 08-Feb-2013 20:06

[Quote]

-Название: Заложница 2
Оригинальное название: Taken 2
Год выхода: 2012
Жанр: боевик, триллер, криминал
Режиссер: Оливье Мегатон
Страна: Франция
Продолжительность: 01:32:08
Перевод: Дубляж (Профессиональный[Лицензия]) + Оригинал (Английский)
Субтитры: Русские/Английские UTF-8 (full)-В ролях:
Лиам Нисон, Мэгги Грэйс, Фамке Янссен, Лиленд Орсер, Джон Грайз, Д.Б. Суини, Люк Граймс, Раде Шербеджия, Кеворк Маликян, Ален Фиглаж, Фрэнк Альварез, Мурат Тунселли, Али Йылдирим, Эргун Куйусу, Ченгиз Бозкурт, Хакан Карахан, Сарухан Сари
Описание:
Брайану Миллсу придется расхлебывать последствия своих действий. Спасая свою дочь, он убил главаря банды, у которого — сюрприз! — есть отец по имени Мурад. Мурад жаждет отмщения и описывается как человек, отдающий приказы, но сам никогда никому не подчиняющийся. Мурад берет в заложники Миллса с супругой, и тут уже Ким Миллс нужно будет спасать своих родителей.-Смпл
Качество: BDRip 720p | Taken 2 2012 BluRay 1080p AVC DTS-HD MA5.1
Формат: MKV
Видео кодек: H.264
Видео: 1280x536/2.40:1/23.976 fps/6 176 Kbps/0.375 Bits/(Pixel*Frame)
Аудио (Русский): 48 kHz, AC3 Dolby Digital, 3/2 (L,C,R,l,r) + LFE ch, ~ 448 kbps avg | ( Дубляж)
Аудио (Английский): 48 kHz, AC3 Dolby Digital, 3/2 (L,C,R,l,r) + LFE ch, ~ 448 kbps avg | (Оригинал)

log x264 / MI:

avs [info]: 1280x536p 1:1 @ 2500000/104271 fps (cfr)
x264 [info]: using SAR=1/1
x264 [info]: using cpu capabilities: MMX2 SSE2Fast SSSE3 FastShuffle SSE4.2
x264 [info]: profile High, level 4.1
x264 [info]: frame I:1196 Avg QP:17.25 size:141334
x264 [info]: frame P:31158 Avg QP:19.78 size: 55508
x264 [info]: frame B:100197 Avg QP:22.08 size: 23590
x264 [info]: consecutive B-frames: 3.5% 4.6% 10.1% 18.2% 15.1% 38.6% 4.2% 0.8% 2.2% 2.1% 0.6%
x264 [info]: mb I I16..4: 30.7% 49.5% 19.8%
x264 [info]: mb P I16..4: 1.6% 29.8% 1.6% P16..4: 29.5% 21.5% 11.5% 0.0% 0.0% skip: 4.5%
x264 [info]: mb B I16..4: 0.1% 3.7% 0.1% B16..8: 45.9% 13.1% 4.4% direct: 9.3% skip:23.3% L0:44.8% L1:46.4% BI: 8.8%
x264 [info]: 8x8 transform intra:88.1% inter:63.9%
x264 [info]: direct mvs spatial:98.3% temporal:1.7%
x264 [info]: coded y,uvDC,uvAC intra: 96.1% 89.1% 75.6% inter: 43.2% 34.8% 12.3%
x264 [info]: i16 v,h,dc,p: 26% 11% 34% 29%
x264 [info]: i8 v,h,dc,ddl,ddr,vr,hd,vl,hu: 10% 8% 12% 10% 13% 12% 13% 11% 12%
x264 [info]: i4 v,h,dc,ddl,ddr,vr,hd,vl,hu: 11% 9% 5% 9% 14% 13% 14% 11% 13%
x264 [info]: i8c dc,h,v,p: 50% 17% 14% 19%
x264 [info]: Weighted P-Frames: Y:20.5% UV:14.3%
x264 [info]: ref P L0: 43.9% 10.1% 20.0% 7.1% 5.5% 3.5% 3.1% 1.6% 1.5% 1.1% 1.1% 0.9% 0.4% 0.1%
x264 [info]: ref B L0: 70.2% 13.6% 6.0% 3.2% 2.2% 1.7% 1.4% 0.7% 0.5% 0.3% 0.1%
x264 [info]: ref B L1: 91.7% 8.3%
x264 [info]: kb/s:6167.67
x264 [total]: encoded 132551 frames, 3.18 fps, 6167.67 kb/s
--------------------------------------------------------------------------------
Format : Matroska
Format version : Version 2
File size : 4.55 GiB
Duration : 1h 32mn
Overall bit rate : 7 066 Kbps
Movie name : [email protected]_Movies
Encoded date : UTC 2013-02-08 14:39:53
Writing application : mkvmerge v4.0.0 ('The Stars were mine') built on Jun 6 2010 16:18:42
Writing library : libebml v1.0.0 + libmatroska v1.0.0
Video
ID : 1
Format : AVC
Format/Info : Advanced Video Codec
Format profile : [email protected]
Format settings, CABAC : Yes
Format settings, ReFrames : 12 frames
Codec ID : V_MPEG4/ISO/AVC
Duration : 1h 32mn
Bit rate : 6 176 Kbps
Width : 1 280 pixels
Height : 536 pixels
Display aspect ratio : 2.40:1
Frame rate : 23.976 fps
Color space : YUV
Chroma subsampling : 4:2:0
Bit depth : 8 bits
Scan type : Progressive
Bits/(Pixel*Frame) : 0.375
Stream size : 3.88 GiB (85%)
Writing library : x264 core 119 r2106 07efeb4
Encoding settings : cabac=1 / ref=12 / deblock=1:-2:-1 / analyse=0x3:0x113 / me=umh / subme=10 / psy=1 / psy_rd=1.10:0.10 / mixed_ref=1 / me_range=32 / chroma_me=1 / trellis=2 / 8x8dct=1 / cqm=0 / deadzone=21,11 / fast_pskip=0 / chroma_qp_offset=-3 / threads=6 / sliced_threads=0 / nr=0 / decimate=0 / interlaced=0 / bluray_compat=0 / constrained_intra=0 / bframes=10 / b_pyramid=2 / b_adapt=2 / b_bias=0 / direct=3 / weightb=1 / open_gop=0 / weightp=2 / keyint=240 / keyint_min=24 / scenecut=40 / intra_refresh=0 / rc=2pass / mbtree=0 / bitrate=6176 / ratetol=1.0 / qcomp=0.70 / qpmin=0 / qpmax=69 / qpstep=4 / cplxblur=20.0 / qblur=0.5 / ip_ratio=1.40 / pb_ratio=1.30 / aq=1:0.90
Language : English
Default : No
Forced : No
Audio #1
ID : 2
Format : AC-3
Format/Info : Audio Coding 3
Mode extension : CM (complete main)
Format settings, Endianness : Big
Codec ID : A_AC3
Duration : 1h 32mn
Bit rate mode : Constant
Bit rate : 448 Kbps
Channel(s) : 6 channels
Channel positions : Front: L C R, Side: L R, LFE
Sampling rate : 48.0 KHz
Bit depth : 16 bits
Compression mode : Lossy
Stream size : 295 MiB (6%)
Title : Дубляж
Language : Russian
Default : Yes
Forced : No
Audio #2
ID : 3
Format : AC-3
Format/Info : Audio Coding 3
Mode extension : CM (complete main)
Format settings, Endianness : Big
Codec ID : A_AC3
Duration : 1h 32mn
Bit rate mode : Constant
Bit rate : 448 Kbps
Channel(s) : 6 channels
Channel positions : Front: L C R, Side: L R, LFE
Sampling rate : 48.0 KHz
Bit depth : 16 bits
Compression mode : Lossy
Stream size : 295 MiB (6%)
Title : Оригинал
Language : English
Default : No
Forced : No
Text #1
ID : 4
Format : UTF-8
Codec ID : S_TEXT/UTF8
Codec ID/Info : UTF-8 Plain Text
Title : full
Language : Russian
Default : Yes
Forced : No
Text #2
ID : 5
Format : UTF-8
Codec ID : S_TEXT/UTF8
Codec ID/Info : UTF-8 Plain Text
Title : full
Language : English
Default : No
Forced : No
Cкриншоты:
       

_________________
Other forum [Profile] [PM]

Dracula

Longevity: 7 years 5 months

Posts: 11216

Торрент-статистика

Post 11-Feb-2013 01:27 (after 2 days 5 hours)

Топик был перенесен из форума Фильмы 2012 в форум Зарубежное кино (HD Video)


sassad
 
Display posts from previous:    
Reply to topic

The time now is: Today 10:39

All times are GMT + 3 Hours



You cannot post new topics in this forum
You cannot reply to topics in this forum
You cannot edit your posts in this forum
You cannot delete your posts in this forum
You cannot vote in polls in this forum
You cannot attach files in this forum
You cannot download files in this forum