Сегодня идет свободное скачивание без начисления Download

Романс о влюбленных (Андрей Михалков-Кончаловский) (1974, Мелодрама) DVD9

Ответить на тему
 
Автор
Сообщение

Omen ®

Стаж: 5 лет 10 месяцев

Сообщений: 184329

Торрент-статистика

Пост 08-Фев-2013 19:40

[Цитировать]

-Романс о влюбленных (1974) DVD9- Русское название: Романс о влюбленных
Год выпуска: 1974
Жанр: Мелодрама
Описание фильма:
Необычный в жанровом отношении, открывающий новые стилевые возможности кино,
этот поэтический фильм стал заметным явлением в отечественном искусстве 70-х.
В нем рассказана простая и в то же время пронзительно-драматическая история любви двух молодых людей, которых разлучает случай.
И хотя они продолжают любить друг друга - оказывается, что это разлука навсегда...
Режиссер: Андрей Михалков-Кончаловский
Актеры: Евгений Киндинов, Елена Коренева, Ирина Купченко, Иннокентий Смоктуновский, Елизавета Солодова, Ия Саввина, Владимир Конкин, Александр Збруев, Роман Громадский, Николай Гринько, Иван Рыжов, Александр Самойлов.
Продолжительность: 02:07:18

Видеокодек: MPEG-2
Битрейт видео: ~5956 Кбит/сек
Размер кадра: 720 х 576
Качество видео: DVD9
Аудиокодек:
1# Russian (Dolby AC3, 6 ch) 448 Кбит/сек
2# Russian (Dolby AC3, 1 ch) 160 Кбит/сек

DVDInfo

Title:
Size: 6.51 Gb ( 6 822 300 KBytes ) - DVD-9
Enabled regions: 1, 2, 3, 4, 5, 6, 7, 8
VTS_01 :
Play Length: 00:00:34
Video: PAL 4:3 (720x576) VBR
VTS_02 :
Play Length: 01:04:50
Video: PAL 16:9 (720x576) VBR, Auto Pan&Scan
Audio:
Russian (Dolby AC3, 6 ch)
Russian (Dolby AC3, 1 ch)
Subtitles:
Russian
VTS_03 :
Play Length: 01:02:27
Video: PAL 16:9 (720x576) VBR, Auto Pan&Scan
Audio:
Russian (Dolby AC3, 6 ch)
Russian (Dolby AC3, 1 ch)
Subtitles:
Russian
VTS_04 :
Play Length: 00:07:49
Video: PAL 16:9 (720x576) VBR, Auto Pan&Scan
Audio:
Russian (Dolby AC3, 2 ch)

MediaInfo

Общее
Полное имя : F:\DVD\ROMANS_O_VLUBLENNIH\VIDEO_TS\VTS_03_1.VOB
Формат : MPEG-PS
Размер файла : 1024 Мбайт
Продолжительность : 21 м.
Режим общего битрейта : Переменный
Общий поток : 6697 Кбит/сек
Видео
Идентификатор : 224 (0xE0)
Формат : MPEG Video
Версия формата : Version 2
Профиль формата : [email protected]
Параметр BVOP формата : Да
Параметр матрицы формата : Выборочная
Параметр GOP формата : M=3, N=15
Продолжительность : 21 м.
Вид битрейта : Переменный
Битрейт : 5956 Кбит/сек
Максимальный битрейт : 6050 Кбит/сек
Ширина : 720 пикселей
Высота : 576 пикселей
Соотношение сторон : 4:3
Частота кадров : 25,000 кадров/сек
Стандарт вещания : PAL
Цветовое пространство : YUV
Субдискретизация насыщенности : 4:2:0
Битовая глубина : 8 бит
Тип развёртки : Чересстрочная
Порядок развёртки : Верхнее поле первое
Метод сжатия : С потерями
Бит/(Пиксели*Кадры) : 0.574
Размер потока : 911 Мбайт (89%)
Аудио #1
Идентификатор : 189 (0xBD)-128 (0x80)
Формат : AC-3
Формат/Информация : Audio Coding 3
Расширение режима : CM (complete main)
Параметр Endianness формата : Big
Режим смешивания : DVD-Video
Продолжительность : 21 м.
Вид битрейта : Постоянный
Битрейт : 448 Кбит/сек
Каналы : 6 каналов
Расположение каналов : Front: L C R, Side: L R, LFE
Частота : 48,0 КГц
Битовая глубина : 16 бит
Метод сжатия : С потерями
Задержка видео : -80 мс.
Размер потока : 68,5 Мбайт (7%)
Аудио #2
Идентификатор : 189 (0xBD)-129 (0x81)
Формат : AC-3
Формат/Информация : Audio Coding 3
Расширение режима : CM (complete main)
Параметр Endianness формата : Big
Режим смешивания : DVD-Video
Продолжительность : 21 м.
Вид битрейта : Постоянный
Битрейт : 160 Кбит/сек
Каналы : 1 канал
Расположение каналов : Front: C
Частота : 48,0 КГц
Битовая глубина : 16 бит
Метод сжатия : С потерями
Задержка видео : -80 мс.
Размер потока : 24,5 Мбайт (2%)
Текст
Идентификатор : 189 (0xBD)-32 (0x20)
Формат : RLE
Формат/Информация : Run-length encoding
Режим смешивания : DVD-Video
Меню

Дополнительно

Бонусы: Фильмографии
Субтитры: русские

Скриншоты меню

       
Скриншоты:                    
Вне форума [Профиль] [ЛС]
Показать сообщения:    
Ответить на тему

Текущее время: Сегодня 04:39

Часовой пояс: GMT + 3



Вы не можете начинать темы
Вы не можете отвечать на сообщения
Вы не можете редактировать свои сообщения
Вы не можете удалять свои сообщения
Вы не можете голосовать в опросах
Вы не можете прикреплять файлы к сообщениям
Вы не можете скачивать файлы