Today is a free download without charge Download

Анна Каренина / Anna Karenina (Джо Райт)(Драма, экранизация.2012) BDRip 1080p | Лицензия

Reply to topic
 
Author
Message

KirovSOFT ®

Gender:

Longevity: 9 years 6 months

Posts: 998

Location: Кировская область -Оричи

Торрент-статистика

Post 08-Feb-2013 19:39

[Quote]

Анна Каренина / Anna Karenina

Информация о фильме
Название: Анна Каренина
Оригинальное название: Anna Karenina
Год выпуска: 2012
Жанр: Драма, экранизация
Выпущено: Великобритания, Working Title Films
Режиссер: Джо Райт

В ролях: Кира Найтли, Джуд Лоу, Аарон Джонсон, Келли Макдоналд, Мэттью Макфейден, Домналл Глисон, Рут Уилсон, Алисия Викандер, Оливия Уильямс, Эмили Уотсон, Эрик МакЛеннан, Тео Мориссей, Сесиль Мориссей, Фрея Галпин, Октавия Мориссей, Беатрис Мориссей, Гуро Нагелус Шия, Аруан Галиева, Люк Ньюберри, Майкл Шэйффер, Пип Торренс, Сюзанна Лотар, Александра Роач, Генри Ллойд-Хьюз, Дэвид Уилмот, Танништа Чаттерджи, Ник Холдер, Баффи Дэвис, Эрос Влахос, Сэм Кокс, Холлидей Грейнджер, Мишель Докери, Эмиральд Феннел, Томас Хоус, Рафаэль Персонас, Билл Скарсгард, Кара Делевинь, Гера Хилмарсдоттир, Кеннет Коллар

О фильме: По знаменитому одноименному роману Льва Толстого. История о трагичной любви замужней дамы Анны Карениной к молодому офицеру графу Вронскому на фоне любви и счастливой семейной жизни
Константина Левина и Кити Щербацкой.

Файл
Качество: BDRip 1080p [HDMaNiAcS]
Видео: MPEG-4 AVC, 17.8 Мбит/с, 1920x804, 23.976 кадр/с
Аудио: Русский (DTS, 6 ch, 768 Кбит/c), английский (DTS, 6 ch, 1510 Кбит/c)
Размер: 18.20 ГБ
Продолжительность: 02:09:32
Перевод: Дублированный [лицензия]
Субтитры: Русские, английские

MediaInfo:

Код:
General
Unique ID : 206953365675162455572640625429001361667 (0x9BB1C4B629239CA0A36CF69685855903)
Complete name : Anna.Karenina.2012.D.BDRip.1080p.IRONCLUB.mkv
Format : Matroska
Format version : Version 2
File size : 18.2 GiB
Duration : 2h 9mn
Overall bit rate : 20.1 Mbps
Movie name : IRONCLUB
Encoded date : UTC 2013-02-08 09:31:08
Writing application : mkvmerge v5.2.0 ('I can't explain') built on Dec 18 2011 18:12:03
Writing library : libebml v1.2.3 + libmatroska v1.3.0
Video
ID : 1
Format : AVC
Format/Info : Advanced Video Codec
Format profile : [email protected]
Format settings, CABAC : Yes
Format settings, ReFrames : 5 frames
Codec ID : V_MPEG4/ISO/AVC
Duration : 2h 9mn
Bit rate : 17.9 Mbps
Width : 1 920 pixels
Height : 804 pixels
Display aspect ratio : 2.40:1
Frame rate : 23.976 fps
Color space : YUV
Chroma subsampling : 4:2:0
Bit depth : 8 bits
Scan type : Progressive
Bits/(Pixel*Frame) : 0.482
Stream size : 15.8 GiB (87%)
Title : Anna.Karenina.2012.1080p.BluRay.DTS.x264-HDMaNiAcS
Writing library : x264 core 129 r2245 bc13772
Encoding settings : cabac=1 / ref=5 / deblock=1:-3:-3 / analyse=0x3:0x113 / me=tesa / subme=11 / psy=1 / psy_rd=1.05:0.00 / mixed_ref=1 / me_range=24 / chroma_me=1 / trellis=2 / 8x8dct=1 / cqm=0 / deadzone=21,11 / fast_pskip=1 / chroma_qp_offset=-2 / threads=12 / lookahead_threads=2 / sliced_threads=0 / nr=0 / decimate=1 / interlaced=0 / bluray_compat=0 / constrained_intra=0 / bframes=8 / b_pyramid=2 / b_adapt=2 / b_bias=0 / direct=3 / weightb=1 / open_gop=0 / weightp=2 / keyint=240 / keyint_min=23 / scenecut=40 / intra_refresh=0 / rc=2pass / mbtree=0 / bitrate=17850 / ratetol=1.0 / qcomp=0.60 / qpmin=10 / qpmax=69 / qpstep=4 / cplxblur=20.0 / qblur=0.5 / ip_ratio=1.40 / pb_ratio=1.30 / aq=2:0.60
Language : English
Default : Yes
Forced : Yes
Audio #1
ID : 2
Format : DTS
Format/Info : Digital Theater Systems
Codec ID : A_DTS
Duration : 2h 9mn
Bit rate mode : Constant
Bit rate : 755 Kbps
Channel(s) : 6 channels
Channel positions : Front: L C R, Side: L R, LFE
Sampling rate : 48.0 KHz
Bit depth : 24 bits
Compression mode : Lossy
Stream size : 699 MiB (4%)
Title : DTS 5.1 @ 768 kbps - Dub, BD CEE
Language : Russian
Default : Yes
Forced : Yes
Audio #2
ID : 3
Format : DTS
Format/Info : Digital Theater Systems
Codec ID : A_DTS
Duration : 2h 9mn
Bit rate mode : Constant
Bit rate : 1 510 Kbps
Channel(s) : 6 channels
Channel positions : Front: L C R, Side: L R, LFE
Sampling rate : 48.0 KHz
Bit depth : 24 bits
Compression mode : Lossy
Stream size : 1.37 GiB (8%)
Title : DTS 5.1 @ 1536 kbps
Language : English
Default : No
Forced : No
Text #1
ID : 4
Format : UTF-8
Codec ID : S_TEXT/UTF8
Codec ID/Info : UTF-8 Plain Text
Title : Forced
Language : Russian
Default : No
Forced : No
Text #2
ID : 5
Format : UTF-8
Codec ID : S_TEXT/UTF8
Codec ID/Info : UTF-8 Plain Text
Title : Full
Language : Russian
Default : No
Forced : No
Text #3
ID : 6
Format : UTF-8
Codec ID : S_TEXT/UTF8
Codec ID/Info : UTF-8 Plain Text
Language : English
Default : Yes
Forced : No
Menu
00:00:00.000 : en:00:00:00.000
00:05:36.294 : en:00:05:36.294
00:11:42.076 : en:00:11:42.076
00:19:59.156 : en:00:19:59.156
00:25:26.900 : en:00:25:26.900
00:32:40.750 : en:00:32:40.750
00:39:52.056 : en:00:39:52.056
00:46:59.107 : en:00:46:59.107
00:54:00.362 : en:00:54:00.362
01:00:36.257 : en:01:00:36.257
01:07:13.529 : en:01:07:13.529
01:14:52.070 : en:01:14:52.070
01:22:30.070 : en:01:22:30.070
01:27:00.548 : en:01:27:00.548
01:31:49.378 : en:01:31:49.378
01:36:12.975 : en:01:36:12.975
01:42:42.906 : en:01:42:42.906
01:47:57.971 : en:01:47:57.971
01:55:04.522 : en:01:55:04.522
02:01:45.923 : en:02:01:45.923
Скриншоты:
       

_________________
Other forum [Profile] [PM]
Display posts from previous:    
Reply to topic

The time now is: Today 21:51

All times are GMT + 3 Hours



You cannot post new topics in this forum
You cannot reply to topics in this forum
You cannot edit your posts in this forum
You cannot delete your posts in this forum
You cannot vote in polls in this forum
You cannot attach files in this forum
You cannot download files in this forum