Today is a free download without charge Download

Отдел «С.С.С.Р» / (Серии: 1- из 8) (Владимир Янковский, Андрей Комаров) [2012, Криминал, Боевик, HDTVRip 720p]

Reply to topic
 
Author
Message

Omen ®

Longevity: 9 years 1 month

Posts: 181086

Торрент-статистика

Post 08-Feb-2013 18:08

[Quote]

Отдел «С.С.С.Р»
Год выпуска: 2012
Производство: Расфокусфильм
Жанр: Криминал, Боевик
Продолжительность: ~00:45:00
Субтитры: нет
Режиссёр: Владимир Янковский, Андрей Комаров
В ролях: Алексей Макаров, Олег Фомин, Эдуард Мацаберидзе, Павел Делонг, Олеся Судзиловская, Валерий Кащеев, Виктор Рыбчинский, Андрей Лукьянов, Константин Котляров, Александр Ткаченок, Анна Полупанова, Таисия Грач, Екатерина Шуляк, Руслан Ещенко, Виктор Молчан, Татьяна Жданова
Описание:Действие фильма происходит в небольшом сибирском городке Ясногорске. Там объявляется киллер, бывший спецназовец, воевавший в Афганистане. Чтобы найти его, из Москвы приезжают сыщики специального отдела под кодовым названием СССР. Вначале местные правоохранительные органы помогают расследованию. Но потом выясняется, что весь город под контролем мафии.

Качество: HDTVRip 720p
Формат: MKV
Видео кодек: H.264
Аудио кодек: MPEG Audio
Видео: x264, 1280 х 720 (16:9), 25,000 кадр/сек, ~ 2897 Кбит/сек
Аудио: MPEG Audio 48000Hz stereo 192 Кбит/сек
Сторонней рекламы нет!

MediaInfo

Общее
Уникальный идентификатор : 234941960048762390393116156811538575679 (0xB0C02CF474983AD5B5D11ECD0C43B13F)
Полное имя : E:\Downloads\55\Отдел «С.С.С.Р» HDTVRip\Отдел «С.С.С.Р» 01_серия_HDTVRip_by_Серый1779.mkv
Формат : Matroska
Размер файла : 974 Мбайт
Продолжительность : 44 м.
Общий поток : 3091 Кбит/сек
Дата кодирования : UTC 2013-02-08 03:20:13
Программа кодирования : mkvmerge v4.9.1 ('Ich will') built on Sep 21 2011 17:48:11
Библиотека кодирования : libebml v1.2.1 + libmatroska v1.2.0
Видео
Идентификатор : 1
Формат : AVC
Формат/Информация : Advanced Video Codec
Профиль формата : [email protected]
Параметр CABAC формата : Да
Параметр ReFrames формата : 10 кадров
Идентификатор кодека : V_MPEG4/ISO/AVC
Продолжительность : 44 м.
Битрейт : 2838 Кбит/сек
Ширина : 1280 пикс.
Высота : 720 пикс.
Соотношение сторон : 16:9
Частота кадров : 25,000 кадр/сек
Цветовое пространство : YUV
Подвыборка цветности : 4:2:0
Битовая глубина : 8 бит
Тип развёртки : Прогрессивная
Бит/(Пиксели*Кадры) : 0.123
Размер потока : 894 Мбайт (92%)
Библиотека кодирования : x264 core 118 r2085 8a62835
Настройки программы : cabac=1 / ref=10 / deblock=1:-2:-2 / analyse=0x3:0x133 / me=umh / subme=9 / psy=1 / psy_rd=1.00:0.15 / mixed_ref=1 / me_range=32 / chroma_me=1 / trellis=2 / 8x8dct=1 / cqm=0 / deadzone=21,11 / fast_pskip=0 / chroma_qp_offset=-3 / threads=6 / sliced_threads=0 / nr=0 / decimate=1 / interlaced=0 / bluray_compat=0 / constrained_intra=0 / bframes=9 / b_pyramid=2 / b_adapt=2 / b_bias=0 / direct=1 / weightb=1 / open_gop=0 / weightp=2 / keyint=250 / keyint_min=25 / scenecut=40 / intra_refresh=0 / rc_lookahead=50 / rc=crf / mbtree=1 / crf=20.0 / qcomp=0.60 / qpmin=0 / qpmax=69 / qpstep=4 / ip_ratio=1.40 / aq=2:0.80
Основные цвета : BT.470-6 System B, BT.470-6 System G, BT.601-6 625, BT.1358 625, BT.1700 625 PAL, BT.1700 625 SECAM
Характеристики трансфера : BT.470-6 System B, BT.470-6 System G
Коэффициенты матрицы : BT.470-6 System B, BT.470-6 System G, BT.601-6 625, BT.1358 625, BT.1700 625 PAL, BT.1700 625 SECAM, IEC 61966-2-4 601
Аудио
Идентификатор : 2
Формат : MPEG Audio
Версия формата : Version 1
Профиль формата : Layer 2
Идентификатор кодека : A_MPEG/L2
Идентификатор кодека/Подсказка : MP2
Продолжительность : 44 м.
Вид битрейта : Постоянный
Битрейт : 192 Кбит/сек
Каналы : 2 канала
Частота : 48,0 КГц
Метод сжатия : С потерями
Размер потока : 60,5 Мбайт (6%)

h264 log

x264 [info]: frame I:679 Avg QP:17.54 size:102902
x264 [info]: frame P:15268 Avg QP:21.00 size: 31963
x264 [info]: frame B:50151 Avg QP:24.63 size: 7970
x264 [info]: consecutive B-frames: 2.3% 2.8% 9.4% 33.4% 13.7% 34.4% 2.0% 1.7% 0.3% 0.2%
x264 [info]: mb I I16..4: 10.6% 74.0% 15.4%
x264 [info]: mb P I16..4: 3.0% 12.7% 1.3% P16..4: 54.0% 15.9% 4.1% 0.7% 0.2% skip: 8.0%
x264 [info]: mb B I16..4: 0.2% 0.9% 0.1% B16..8: 36.2% 5.9% 1.4% direct: 5.2% skip:50.2% L0:40.2% L1:49.6% BI:10.2%
x264 [info]: 8x8 transform intra:74.7% inter:67.9%
x264 [info]: coded y,uvDC,uvAC intra: 73.9% 72.3% 33.7% inter: 18.5% 17.7% 1.3%
x264 [info]: i16 v,h,dc,p: 29% 18% 6% 47%
x264 [info]: i8 v,h,dc,ddl,ddr,vr,hd,vl,hu: 13% 11% 4% 8% 13% 14% 13% 12% 12%
x264 [info]: i4 v,h,dc,ddl,ddr,vr,hd,vl,hu: 14% 12% 3% 7% 14% 15% 13% 11% 11%
x264 [info]: i8c dc,h,v,p: 35% 27% 21% 17%
x264 [info]: Weighted P-Frames: Y:1.6% UV:0.6%
x264 [info]: ref P L0: 48.4% 13.4% 18.9% 4.7% 4.5% 2.9% 2.9% 1.4% 1.4% 1.3% 0.2% 0.0%
x264 [info]: ref B L0: 87.5% 7.0% 2.4% 1.1% 0.7% 0.6% 0.4% 0.2% 0.1%
x264 [info]: ref B L1: 96.5% 3.5%
x264 [info]: kb/s:2897.47
x264 [total]: encoded 66098 frames, 3.44 fps, 2897.47 kb/s
Отдельное спасибо mydimka за предоставление исходника.

Внимание ! Раздача ведётся путём добавления новых серий

Внимание! Раздача ведётся путём добавления новых серий; при каждом добавлении создётся новый торрент. Чтобы начать докачку новой серии, пользователям необходимо сделать следующее:
(1) остановить скачивание,
(2) удалить старый торрент у себя из клиента (старые серии удалять не надо),
(3) скачать новый торрент и запустить его у себя в клиенте вместо старого, при этом указать клиенту путь в старую папку куда и должно происходить скачивание новых серий.
Ваш клиент при этом должен произвести хеширование (проверку) старой папки (если не производит сам - помогите ему сделать это), и будет докачивать только те серии которых у вас ещё нет. Старые серии при этом не удаляются, а продолжают раздаваться!
Eсли вы уже удалили старые серии, то предотвратить повторную закачку старых серий можно, отжав галочку в соответсвующих местах при запуске нового торрента. По возможности, желательно не удалять старые серии как можно дольше чтобы релизёр не столько продолжал раздавать старые серии, а смог сконцентрироваться на новых.
ВНИМАНИЕ! ТОРРЕНТ ПЕРЕЗАЛИТ! ДОБАВЛЕНА 1-я СЕРИЯ!

Скриншоты

Other forum [Profile] [PM]
Display posts from previous:    
Reply to topic

The time now is: Today 23:44

All times are GMT + 3 Hours



You cannot post new topics in this forum
You cannot reply to topics in this forum
You cannot edit your posts in this forum
You cannot delete your posts in this forum
You cannot vote in polls in this forum
You cannot attach files in this forum
You cannot download files in this forum