Today is a free download without charge Download

Скалолаз / Cliffhanger (Ренни Харлин / Renny Harlin) [1993 г., Италия, Франция, США, боевик, триллер, приключения, BDRip 1080p] Dub + 2MVO + 2DVO + 5AVO + VO + Eng + Original + Subs (Rus, Eng)

Reply to topic
 
Author
Message

Omen ®

Longevity: 8 years 5 months

Posts: 181087

Торрент-статистика

Post 08-Feb-2013 18:08

[Quote]

--Скалолаз / Cliffhanger«The height of adventure.»- -Год выпуска: 1993
Страна: Италия, Франция, США
Жанр: боевик, триллер, приключения
Продолжительность: 01:53:00
Перевод №1: Профессиональный (двухголосый закадровый, R5 Twister)
Перевод №2: Профессиональный (двухголосый закадровый, СТС)
Перевод №3: Профессиональный (многоголосый закадровый, ОРТ)
Перевод №4: Профессиональный (многоголосый закадровый, РТР)
Перевод №5: Авторский (одноголосый закадровый, А.Гаврилов)
Перевод №6: Авторский (одноголосый закадровый, А.Гаврилов, VHS)
Перевод №7: Авторский (одноголосый закадровый, Ю.Живов)
Перевод №8: Авторский (одноголосый закадровый, В.Горчаков)
Перевод №9: Авторский (одноголосый закадровый, Л.Володарский)
Перевод №10: Любительский (одноголосый закадровый, неизвестный)
Субтитры: Русские, Английские-Режиссер: Ренни Харлин / Renny Harlin
Сценарий: Джон Лонг / John Long, Майкл Франс / Michael France, Сильвестр Сталлоне / Sylvester Stallone
Продюсер: Сильвио Берлускони / Silvio Berlusconi, Джеймс Р. Затолокин / James R. Zatolokin, Ренни Харлин / Renny Harlin и др.
Оператор: Норман Кент / Norman Kent, Алекс Томсон / Alex Thomson
Композитор: Тревор Джонс / Trevor Jones
В ролях: Сильвестр Сталлоне / Sylvester Stallone (Gabe Walker), Джон Литгоу / John Lithgow (Eric Qualen), Майкл Рукер / Michael Rooker (Hal Tucker), Джанин Тернер / Janine Turner (Jessie Deighan), Рекс Линн / Rex Linn (Richard Travers, Treasury Agent), Кэролайн Гудолл / Caroline Goodall (Kristel, Jetstar Pilot), Леон / Leon (Kynette), Крэйг Фэйрбрасс / Craig Fairbrass (Delmar), Грегори Скотт Камминс / Gregory Scott Cummins (Ryan), Дэнис Форест / Denis Forest (Heldon), Мишель Джойнер / Michelle Joyner (Sarah), Макс Перлих / Max Perlich (Evan)-Описание: В горах после снежной лавины теряются 5 человек. На их поиски отправляется один из лучших альпинистов и горных проводников - Гейб Уокер. Неожиданно он понимает, что его специально заманили в горы для совершенно другого дела.
Также становится ясно, что Гейб станет нежелательным свидетелем, от которого без раздумья «избавятся». Но свою жизнь он терять так просто не собирается и объявляет безжалостную войну банде вооруженных до зубов боевиков под предводительством международного террориста Эрика Куалена...
-
За дороги спасибо всем авторам раздач, с которых они были взяты!!-Качество: Blu-ray Rip 1080p
Формат: MKV
Видео: MPEG-4 AVC (H264), 1920x798, 23.976 fps, High Profile 4.1, ~11000 kbps avg, bit/(pixel*frame) 0.299
Аудио №1: Russian: 48 kHz, AC3, 3/2 (L,C,R,l,r) + LFE ch, ~448.00 kbps avg двухголосый закадровый (R5 Twister)
Аудио №2: Russian: 48 kHz, AC3, 2.0 (L,R), ~224.00 kbps avg двухголосый закадровый (СТС)
Аудио №3: Russian: 48 kHz, AC3, 2.0 (L,R), ~224.00 kbps avg многоголосый закадровый (ОРТ)
Аудио №4: Russian: 48 kHz, AC3, 2.0 (L,R), ~192.00 kbps avg многоголосый закадровый (РТР)
Аудио №5: Russian: 48 kHz, AC3, 3/2 (L,C,R,l,r) + LFE ch, ~448.00 kbps avg одноголосый закадровый (А.Гаврилов)
Аудио №6: Russian: 48 kHz, AC3, 2.0 (L,R), ~192.00 kbps avg одноголосый закадровый (А.Гаврилов, VHS)
Аудио №7: Russian: 48 kHz, AC3, 2.0 (L,R), ~192.00 kbps avg одноголосый закадровый (Ю.Живов)
Аудио №8: Russian: 48 kHz, AC3, 2.0 (L,R), ~192.00 kbps avg одноголосый закадровый (В.Горчаков)
Аудио №9: Russian: 48 kHz, AC3, 2.0 (L,R), ~192.00 kbps avg одноголосый закадровый (Л.Володарский)
Аудио №10: Russian: 48 kHz, AC3, 2.0 (L,R), ~192.00 kbps avg любительский одноголосый закадровый (неизвестный)
Аудио №11: English: 48 kHz, DTS, 3/2 (L,C,R,l,r) + LFE ch, ~1510.00 kbps avg original
Субтитры : Russian, English (Softsub SRT)
Навигация по главам: есть-

MediaInfo

L:\Cliffhanger [Скалолаз] (1993) 1920x798 BDRip RusEngSubsChpt.mkv
General
Unique ID : 242556288111691826474419325799752638011 (0xB67AA4501C01E8CFA43335DE45D19E3B)
Complete name : L:\Cliffhanger [Скалолаз] (1993) 1920x798 BDRip RusEngSubsChpt.mkv
Format : Matroska
Format version : Version 4 / Version 2
File size : 11.8 GiB
Duration : 1h 53mn
Overall bit rate : 15.0 Mbps
Encoded date : UTC 2013-02-08 13:25:24
Writing application : mkvmerge v6.0.0 ('Coming Up For Air') built on Jan 20 2013 09:52:00
Writing library : libebml v1.3.0 + libmatroska v1.4.0
Video #1
ID : 1
Format : AVC
Format/Info : Advanced Video Codec
Format profile : [email protected]
Format settings, CABAC : Yes
Format settings, ReFrames : 5 frames
Codec ID : V_MPEG4/ISO/AVC
Duration : 1h 53mn
Bit rate : 11.0 Mbps
Width : 1 920 pixels
Height : 798 pixels
Display aspect ratio : 2.40:1
Frame rate mode : Constant
Frame rate : 23.976 fps
Color space : YUV
Chroma subsampling : 4:2:0
Bit depth : 8 bits
Scan type : Progressive
Bits/(Pixel*Frame) : 0.299
Stream size : 8.43 GiB (71%)
Writing library : x264 core 129 r2245+704+36 8e61944 tMod+MixAQ [[email protected] X86_64]
Encoding settings : cabac=1 / ref=5 / deblock=1:-3:-3 / analyse=0x3:0x133 / me=umh / subme=11 / psy=1 / fade_compensate=0.00 / psy_rd=1.00:0.15 / mixed_ref=1 / me_range=32 / chroma_me=1 / trellis=2 / 8x8dct=1 / cqm=0 / deadzone=21,11 / fast_pskip=0 / chroma_qp_offset=-3 / threads=12 / lookahead_threads=2 / sliced_threads=0 / nr=0 / decimate=0 / interlaced=0 / bluray_compat=0 / constrained_intra=0 / fgo=0 / bframes=10 / b_pyramid=2 / b_adapt=2 / b_bias=0 / direct=3 / weightb=1 / open_gop=0 / weightp=2 / keyint=250 / keyint_min=23 / scenecut=40 / intra_refresh=0 / rc_lookahead=120 / rc=2pass / mbtree=1 / bitrate=11000 / ratetol=1.0 / qcomp=0.70 / qpmin=0 / qpmax=69 / qpstep=4 / cplxblur=20.0 / qblur=0.5 / ip_ratio=1.40 / aq=4 / aq-strength=0.80 / aq-sensitivity=10.00 / aq-ifactor=1.00 / aq-pfactor=1.00 / aq-bfactor=1.00 / aq2=0 / zones=152930,162575,b=0.3
Language : English
Default : Yes
Forced : No
Audio #2
ID : 2
Format : AC-3
Format/Info : Audio Coding 3
Mode extension : CM (complete main)
Format settings, Endianness : Big
Codec ID : A_AC3
Duration : 1h 53mn
Bit rate mode : Constant
Bit rate : 448 Kbps
Channel(s) : 6 channels
Channel positions : Front: L C R, Side: L R, LFE
Sampling rate : 48.0 KHz
Bit depth : 16 bits
Compression mode : Lossy
Stream size : 362 MiB (3%)
Title : DVO AC3 6ch 448kbps (R5, Twister)
Language : Russian
Default : Yes
Forced : No
Audio #3
ID : 3
Format : AC-3
Format/Info : Audio Coding 3
Mode extension : CM (complete main)
Format settings, Endianness : Big
Codec ID : A_AC3
Duration : 1h 53mn
Bit rate mode : Constant
Bit rate : 224 Kbps
Channel(s) : 2 channels
Channel positions : Front: L R
Sampling rate : 48.0 KHz
Bit depth : 16 bits
Compression mode : Lossy
Stream size : 181 MiB (1%)
Title : DVO AC3 2ch 224kbps (СТС)
Language : Russian
Default : No
Forced : No
Audio #4
ID : 4
Format : AC-3
Format/Info : Audio Coding 3
Mode extension : CM (complete main)
Format settings, Endianness : Big
Codec ID : A_AC3
Duration : 1h 53mn
Bit rate mode : Constant
Bit rate : 224 Kbps
Channel(s) : 2 channels
Channel positions : Front: L R
Sampling rate : 48.0 KHz
Bit depth : 16 bits
Compression mode : Lossy
Stream size : 181 MiB (1%)
Title : MVO AC3 2ch 224kbps (ОРТ)
Language : Russian
Default : No
Forced : No
Audio #5
ID : 5
Format : AC-3
Format/Info : Audio Coding 3
Mode extension : CM (complete main)
Format settings, Endianness : Big
Codec ID : A_AC3
Duration : 1h 53mn
Bit rate mode : Constant
Bit rate : 192 Kbps
Channel(s) : 2 channels
Channel positions : Front: L R
Sampling rate : 48.0 KHz
Bit depth : 16 bits
Compression mode : Lossy
Stream size : 155 MiB (1%)
Title : MVO AC3 2ch 192kbps (РТР)
Language : Russian
Default : No
Forced : No
Audio #6
ID : 6
Format : AC-3
Format/Info : Audio Coding 3
Mode extension : CM (complete main)
Format settings, Endianness : Big
Codec ID : A_AC3
Duration : 1h 53mn
Bit rate mode : Constant
Bit rate : 448 Kbps
Channel(s) : 6 channels
Channel positions : Front: L C R, Side: L R, LFE
Sampling rate : 48.0 KHz
Bit depth : 16 bits
Compression mode : Lossy
Stream size : 362 MiB (3%)
Title : AVO AC3 6ch 448kbps (А.Гаврилов)
Language : Russian
Default : No
Forced : No
Audio #7
ID : 7
Format : AC-3
Format/Info : Audio Coding 3
Mode extension : CM (complete main)
Format settings, Endianness : Big
Codec ID : A_AC3
Duration : 1h 53mn
Bit rate mode : Constant
Bit rate : 192 Kbps
Channel(s) : 2 channels
Channel positions : Front: L R
Sampling rate : 48.0 KHz
Bit depth : 16 bits
Compression mode : Lossy
Stream size : 155 MiB (1%)
Title : AVO AC3 2ch 192kbps (А.Гаврилов, VHS)
Language : Russian
Default : No
Forced : No
Audio #8
ID : 8
Format : AC-3
Format/Info : Audio Coding 3
Mode extension : CM (complete main)
Format settings, Endianness : Big
Codec ID : A_AC3
Duration : 1h 53mn
Bit rate mode : Constant
Bit rate : 192 Kbps
Channel(s) : 2 channels
Channel positions : Front: L R
Sampling rate : 48.0 KHz
Bit depth : 16 bits
Compression mode : Lossy
Stream size : 155 MiB (1%)
Title : AVO AC3 2ch 192kbps (Ю.Живов)
Language : Russian
Default : No
Forced : No
Audio #9
ID : 9
Format : AC-3
Format/Info : Audio Coding 3
Mode extension : CM (complete main)
Format settings, Endianness : Big
Codec ID : A_AC3
Duration : 1h 53mn
Bit rate mode : Constant
Bit rate : 192 Kbps
Channel(s) : 2 channels
Channel positions : Front: L R
Sampling rate : 48.0 KHz
Bit depth : 16 bits
Compression mode : Lossy
Stream size : 155 MiB (1%)
Title : AVO AC3 2ch 192kbps (В.Горчаков)
Language : Russian
Default : No
Forced : No
Audio #10
ID : 10
Format : AC-3
Format/Info : Audio Coding 3
Mode extension : CM (complete main)
Format settings, Endianness : Big
Codec ID : A_AC3
Duration : 1h 53mn
Bit rate mode : Constant
Bit rate : 192 Kbps
Channel(s) : 2 channels
Channel positions : Front: L R
Sampling rate : 48.0 KHz
Bit depth : 16 bits
Compression mode : Lossy
Stream size : 155 MiB (1%)
Title : AVO AC3 2ch 192kbps (Л.Володарский)
Language : Russian
Default : No
Forced : No
Audio #11
ID : 11
Format : AC-3
Format/Info : Audio Coding 3
Mode extension : CM (complete main)
Format settings, Endianness : Big
Codec ID : A_AC3
Duration : 1h 53mn
Bit rate mode : Constant
Bit rate : 192 Kbps
Channel(s) : 2 channels
Channel positions : Front: L R
Sampling rate : 48.0 KHz
Bit depth : 16 bits
Compression mode : Lossy
Stream size : 155 MiB (1%)
Title : VO AC3 2ch 192kbps (неизвестный)
Language : Russian
Default : No
Forced : No
Audio #12
ID : 12
Format : DTS
Format/Info : Digital Theater Systems
Mode : 16
Format settings, Endianness : Big
Codec ID : A_DTS
Duration : 1h 53mn
Bit rate mode : Constant
Bit rate : 1 509 Kbps
Channel(s) : 6 channels
Channel positions : Front: L C R, Side: L R, LFE
Sampling rate : 48.0 KHz
Bit depth : 24 bits
Compression mode : Lossy
Stream size : 1.19 GiB (10%)
Title : Original DTS 6ch 1510kbps
Language : English
Default : No
Forced : No
Text #13
ID : 13
Format : UTF-8
Codec ID : S_TEXT/UTF8
Codec ID/Info : UTF-8 Plain Text
Language : Russian
Default : No
Forced : No
Text #14
ID : 14
Format : UTF-8
Codec ID : S_TEXT/UTF8
Codec ID/Info : UTF-8 Plain Text
Language : English
Default : No
Forced : No
Menu
00:00:00.000 : :0:00:00.000
00:12:09.979 : :0:12:09.979
00:19:15.195 : :0:19:15.195
00:30:03.760 : :0:30:03.760
00:38:24.969 : :0:38:24.969
00:48:16.810 : :0:48:16.810
00:57:24.774 : :0:57:24.774
01:06:04.961 : :1:06:04.961
01:16:15.654 : :1:16:15.654
01:24:32.650 : :1:24:32.650
01:34:21.072 : :1:34:21.072
01:44:06.823 : :1:44:06.823

x264 log

x264 [info]: frame I:1120 Avg QP:13.18 size:218529 PSNR Mean Y:51.43 U:54.35 V:55.17 Avg:51.95 Global:51.74
x264 [info]: frame P:41813 Avg QP:16.08 size: 92429 PSNR Mean Y:49.36 U:54.11 V:55.12 Avg:50.03 Global:49.74
x264 [info]: frame B:119642 Avg QP:17.58 size: 43338 PSNR Mean Y:48.01 U:53.02 V:54.20 Avg:48.73 Global:48.32
x264 [info]: consecutive B-frames: 3.0% 6.0% 9.1% 42.0% 11.1% 23.7% 1.3% 3.4% 0.1% 0.1% 0.2%
x264 [info]: mb I I16..4: 8.4% 75.0% 16.6%
x264 [info]: mb P I16..4: 2.3% 35.8% 2.7% P16..4: 19.0% 23.0% 8.8% 2.9% 0.4% skip: 5.0%
x264 [info]: mb B I16..4: 0.4% 6.8% 0.3% B16..8: 29.7% 23.8% 4.4% direct:14.7% skip:19.9% L0:40.4% L1:38.7% BI:20.9%
x264 [info]: 8x8 transform intra:88.6% inter:44.8%
x264 [info]: direct mvs spatial:99.5% temporal:0.5%
x264 [info]: coded y,uvDC,uvAC intra: 94.4% 92.2% 77.6% inter: 45.0% 42.1% 18.9%
x264 [info]: i16 v,h,dc,p: 11% 4% 5% 80%
x264 [info]: i8 v,h,dc,ddl,ddr,vr,hd,vl,hu: 11% 11% 15% 8% 9% 9% 10% 11% 15%
x264 [info]: i4 v,h,dc,ddl,ddr,vr,hd,vl,hu: 8% 8% 5% 9% 16% 14% 16% 10% 13%
x264 [info]: i8c dc,h,v,p: 48% 22% 17% 12%
x264 [info]: Weighted P-Frames: Y:98.4% UV:0.8%
x264 [info]: ref P L0: 46.9% 9.3% 23.4% 10.3% 9.2% 1.0% 0.0%
x264 [info]: ref B L0: 84.5% 10.7% 3.5% 1.2%
x264 [info]: ref B L1: 95.9% 4.1%
x264 [info]: SSIM Mean Y:0.9895932 (19.827db)
x264 [info]: PSNR Mean Y:48.382 U:53.308 V:54.444 Avg:49.084 Global:48.662 kb/s:10965.75
x264 [info]: encoded 162575 frames, 6.022 fps, 10965.75 kb/s, 8863.9 MB
x264 [info]: ended at Fri Feb 08 20:11:15 2013
x264 [info]: encoding duration 7:29:57
Other forum [Profile] [PM]
Display posts from previous:    
Reply to topic

The time now is: Today 13:20

All times are GMT + 3 Hours



You cannot post new topics in this forum
You cannot reply to topics in this forum
You cannot edit your posts in this forum
You cannot delete your posts in this forum
You cannot vote in polls in this forum
You cannot attach files in this forum
You cannot download files in this forum