Today is a free download without charge Download

Новогодний переполох / Серии: 1-4 из 4 (Феликс Герчиков) [2012, комедия, DVD9] R5 Original Rus

Reply to topic
 
Author
Message

Omen ®

Longevity: 9 years

Posts: 181086

Торрент-статистика

Post 08-Feb-2013 13:40

[Quote]

Новогодний переполох -Год выпуска: 2012
Производство: ООО "ДТ Продакшн"
Жанр: комедия
Дата выхода DVD: 12 февраля 2013, «Парадиз Медиа»
Продолжительность: 317 мин
Перевод: Оригинал [Лицензия]
Cубтитры: нет
Оригинальная аудиодорожка: русский-Режиссёр: Феликс Герчиков-В ролях: Мария Порошина, Даниил Спиваковский, Луиза-Габриэла Бровина, Сергей Чирков, Галина Петрова, Евгений Воскресенский, Нонна Гришаева, Владимир Стержаков, Татьяна Кравченко, Павел Прилучный, Игорь Письменный, Владимир Добрынин, Алина Кизиярова, Николай Сахаров, Ксения Непотребная-Описание: С появлением молодого обаятельного мошенника Гарика в тихом провинциальном городке начинается настоящий Новогодний переполох с участием семейства Шишкиных, их родственников и коллег, деда Мороза и Снегурочки... и даже настоящего страуса.-Бонусы: нет--Сэмпл-Релиз:
Качество: DVD9 R5
Формат: DVD-Video
Видео кодек: MPEG2
Аудио кодек: AC3
Видео: PAL 16:9 (720x576(0.439)) MPEG Video, 25,000 кадр/сек, 4555 Кбит/сек
Аудио: Russian (Dolby AC3, 6 ch) 224 Кбит/сек, 48,0 КГц

DVDInfo

Title: Novogodniy perepoloh 2012 DVD9Size: 7.11 Gb ( 7 457 466,00 KBytes ) - DVD-9Enabled regions: 1, 2, 3, 4, 5, 6, 7, 8
VTS_01 :Play Length: 00:00:05Video: PAL 16:9 (720x576) VBR, Auto Pan&Scan, Auto Letterboxed
VTS_02 :Play Length: 00:00:16Video: PAL 16:9 (720x576) VBR, Auto Pan&Scan, Auto LetterboxedAudio:Not specified (Dolby AC3, 2 ch)
VTS_03 :Play Length: 00:00:07Video: PAL 16:9 (720x576) VBR, Auto Pan&Scan, Auto LetterboxedAudio:Not specified (Dolby AC3, 2 ch)
VTS_04 :Play Length: 03:17:03Video: PAL 16:9 (720x576) VBR, Auto Pan&Scan, Auto LetterboxedAudio:Not specified, AC3, 3/2 (L,C,R,SL,SR)+LFE ch, 224 kbps, Delay 0 mSec

MI

ОбщееПолное имя : D:\Раздачи\Novogodniy perepoloh 2012 DVD9\VIDEO_TS\VTS_04_2.VOBФормат : MPEG-PSРазмер файла : 1024 МбайтПродолжительность : 29 м.Режим общего битрейта : ПеременныйОбщий поток : 4876 Кбит/сек
ВидеоИдентификатор : 224 (0xE0)Формат : MPEG VideoВерсия формата : Version 2Профиль формата : [email protected]Параметр BVOP формата : ДаПараметр матрицы формата : ВыборочнаяПараметр GOP формата : M=3, N=15Продолжительность : 29 м.Вид битрейта : ПеременныйБитрейт : 4555 Кбит/секМаксимальный битрейт : 9000 Кбит/секШирина : 720 пикселейВысота : 576 пикселейСоотношение сторон : 16:9Частота кадров : 25,000 кадров/секСтандарт вещания : PALЦветовое пространство : YUVСубдискретизация насыщенности : 4:2:0Битовая глубина : 8 битТип развёртки : ЧересстрочнаяПорядок развёртки : Верхнее поле первоеМетод сжатия : С потерямиБит/(Пиксели*Кадры) : 0.439Размер потока : 956 Мбайт (93%)
АудиоИдентификатор : 189 (0xBD)-128 (0x80)Формат : AC-3Формат/Информация : Audio Coding 3Расширение режима : CM (complete main)Параметр Endianness формата : BigРежим смешивания : DVD-VideoПродолжительность : 29 м.Вид битрейта : ПостоянныйБитрейт : 224 Кбит/секКаналы : 6 каналовРасположение каналов : Front: L C R, Side: L R, LFEЧастота : 48,0 КГцБитовая глубина : 16 битМетод сжатия : С потерямиЗадержка видео : -728 мс.Размер потока : 47,0 Мбайт (5%)
Меню

Скриншоты меню

Скриншоты

Other forum [Profile] [PM]
Display posts from previous:    
Reply to topic

The time now is: Today 17:43

All times are GMT + 3 Hours



You cannot post new topics in this forum
You cannot reply to topics in this forum
You cannot edit your posts in this forum
You cannot delete your posts in this forum
You cannot vote in polls in this forum
You cannot attach files in this forum
You cannot download files in this forum