Сегодня идет свободное скачивание без начисления Download

Остров волчий (1969) SATRip

Ответить на тему
 
Автор
Сообщение

Omen ®

Стаж: 5 лет 10 месяцев

Сообщений: 184329

Торрент-статистика

Пост 08-Фев-2013 13:00

[Цитировать]

-Остров волчий (1969) SATRip- Русское название: Остров волчий
Год выпуска: 1969
Жанр: Драма
Описание фильма:
По мотивам одноименной повести Захара Дичарова.
1962 год. Возвращаясь после выполнения ответственного задания, летчик полярной авиации Тагилов спасает молодую женщину Татьяну, которая оказалась на отколовшейся льдине. Она - врач. На острове Волчьем в ее помощи нуждается жена бакенщика. Женщина требует, чтобы летчик переправил ее на остров. Но при посадке самолет терпит аварию - и герои получают тяжелые травмы.
Режиссер: Николай Ильинский
Актеры: Георгий Жженов,Татьяна Лаврова,Антонина Лефтий,Виктор Колпаков,Борислав Брондуков,Лена Гай, Юрий Дубровин
Продолжительность: 01:03:12

Видеокодек: Xvid
Битрейт видео: ~1800 kb/s
Размер кадра: 640x480
Качество видео: SATRip
Аудиокодек: MP3, 2 канала
Битрейт аудио: 128 kb/s

Media Info

Общее
Полное имя : D:\Папка\Видео\Остров Волчий\Остров Волчий 1969.avi
Формат : AVI
Формат/Информация : Audio Video Interleave
Размер файла : 876 Мбайт
Продолжительность : 1 ч. 3 м.
Общий поток : 1938 Кбит/сек
Режиссёр : SATrip by Animat (fenixclub.com)
Программа кодирования : VirtualDubMod 1.5.4.1 (build 2178/release)
Библиотека кодирования : VirtualDubMod build 2178/release
Видео
Идентификатор : 0
Формат : MPEG-4 Visual
Профиль формата : Advanced [email protected]
Параметр BVOP формата : 2
Параметр QPel формата : Нет
Параметр GMC формата : Без точки перехода
Параметр матрицы формата : Default (MPEG)
Режим смешивания : Сжатый битовый поток
Идентификатор кодека : XVID
Идентификатор кодека/Подсказка : XviD
Продолжительность : 1 ч. 3 м.
Битрейт : 1800 Кбит/сек
Ширина : 640 пикселей
Высота : 480 пикселей
Соотношение сторон : 4:3
Частота кадров : 25,000 кадров/сек
Цветовое пространство : YUV
Субдискретизация насыщенности : 4:2:0
Битовая глубина : 8 бит
Тип развёртки : Прогрессивная
Метод сжатия : С потерями
Бит/(Пиксели*Кадры) : 0.234
Размер потока : 814 Мбайт (93%)
Библиотека кодирования : XviD 1.1.2 (UTC 2006-11-01)
Аудио
Идентификатор : 1
Формат : MPEG Audio
Версия формата : Version 1
Профиль формата : Layer 3
Режим : Joint stereo
Расширение режима : MS Stereo
Идентификатор кодека : 55
Идентификатор кодека/Подсказка : MP3
Продолжительность : 1 ч. 3 м.
Вид битрейта : Постоянный
Битрейт : 128 Кбит/сек
Каналы : 2 канала
Частота : 48,0 КГц
Метод сжатия : С потерями
Размер потока : 57,9 Мбайт (7%)
Выравнивание : Соединение по промежуткам
Продолжительность промежутка : 40 мс. (1,00 видеокадр)
Время предзагрузки промежутка : 504 мс.
Скриншоты:
           
Вне форума [Профиль] [ЛС]
Показать сообщения:    
Ответить на тему

Текущее время: Сегодня 06:34

Часовой пояс: GMT + 3



Вы не можете начинать темы
Вы не можете отвечать на сообщения
Вы не можете редактировать свои сообщения
Вы не можете удалять свои сообщения
Вы не можете голосовать в опросах
Вы не можете прикреплять файлы к сообщениям
Вы не можете скачивать файлы