Today is a free download without charge Download

Любопытная Варвара / Серии: 1-8 из 8 (Александр Кириенко) [2012, Россия, мелодрама, детектив, DVD9] R5 Original Rus

Reply to topic
 
Author
Message

Omen ®

Longevity: 9 years

Posts: 181086

Торрент-статистика

Post 08-Feb-2013 05:32

[Quote]

-Любопытная Варвара -Страна: Россия
Студия: Про100 Фильм
Жанр: мелодрама, детектив
Год выпуска: 2012
Мировая премьера: 24 декабря 2012
Российская премьера: 24 декабря 2012
Дата выхода DVD: 29 января 2013, «Lizard Cinema Trade»
Продолжительность: 352 мин.
Перевод: Оригинал [Лицензия]
Cубтитры: нет
Оригинальная аудиодорожка: русский-Режиссер: Александр Кириенко-В ролях: Елена Яковлева, Виталий Хаев, Андрей Кузичёв, Дарья Волга, Петр Баранчеев, Людмила Артемьева, Рамиля Искандер, Виталий Альшанский, Алёна Яковлева, Инга Оболдина, Михаил Горевой, Алексей Юрченко, Софья Лукьянова, Максим Костромыкин, Дмитрий Горевой-Описание: Главная героиня истории — Варвара Ивановна Слуцкая. Бывшая учительница, ныне пенсионерка. Обожает читать детективы Агаты Кристи и всюду совать свой нос. Варвара Ивановна переезжает в квартиру к своему сыну Роману и его жене Алёне помогать с воспитанием внуков Гоши и Лизы. Поначалу отношения Варвары Ивановны с невесткой складываются не очень гладко: две хозяйки «на одной кухне» всегда сложно уживаются. К тому же у Варвары Ивановны свои взгляды и методы воспитания внуков.
Алена считает их слишком мягкими. Однажды Варвара Ивановна возвращалась домой и обнаружила в лифте труп соседки. Дело ведет следователь ОВД, сосед и друг четы Слуцких — Иван Болотников. Естественно, непоседа Варвара Ивановна начинает свое расследование. В этом ей помогает еще один сосед — пенсионер и бывший преподаватель в Академии Контрразведки — Вязьмин. Безудержная энергия, врожденная любопытность вкупе с деликатностью пожилого учителя, и, конечно, доскональное знание детективного жанра позволяет Варваре Ивановне смотреть на преступление немного под другим углом, нежели следователи…
-Бонусы: нет- -Релиз группы: -Качество: DVD9 R5
Формат: DVD-Video
Видео кодек: MPEG2
Аудио кодек: AC3
Видео: PAL 16:9 (720x576(0.238)) MPEG Video, 25,000 кадр/сек, 2472 Кбит/сек
Аудио: Russian (Dolby AC3, 2 ch) 192 Кбит/сек, 48,0 КГц--

DVDInfo

Title: Ljubopytnaja.Varvara.2012.DVD9
Size: 7.90 Gb ( 8 279 128,00 KBytes ) - DVD-9
Enabled regions: 1, 2, 3, 4, 5, 6, 7, 8
VTS_01 :
Play Length: 00:00:25
Video: PAL 4:3 (720x576) VBR
Audio:
Russian (Dolby AC3, 6 ch)
VTS_02 :
Play Length: 00:50:31
Video: PAL 16:9 (720x576) VBR, Auto Pan&Scan, Auto Letterboxed
Audio:
Russian (Dolby AC3, 2 ch)
VTS_03 :
Play Length: 00:51:51
Video: PAL 16:9 (720x576) VBR, Auto Pan&Scan, Auto Letterboxed
Audio:
Russian (Dolby AC3, 2 ch)
VTS_04 :
Play Length: 00:52:49
Video: PAL 16:9 (720x576) VBR, Auto Pan&Scan, Auto Letterboxed
Audio:
Russian (Dolby AC3, 2 ch)
VTS_05 :
Play Length: 00:53:31
Video: PAL 16:9 (720x576) VBR, Auto Pan&Scan, Auto Letterboxed
Audio:
Russian (Dolby AC3, 2 ch)
VTS_06 :
Play Length: 00:52:15
Video: PAL 16:9 (720x576) VBR, Auto Pan&Scan, Auto Letterboxed
Audio:
Russian (Dolby AC3, 2 ch)
VTS_07 :
Play Length: 00:49:37
Video: PAL 16:9 (720x576) VBR, Auto Pan&Scan, Auto Letterboxed
Audio:
Russian (Dolby AC3, 2 ch)
VTS_08 :
Play Length: 00:50:39
Video: PAL 16:9 (720x576) VBR, Auto Pan&Scan, Auto Letterboxed
Audio:
Russian (Dolby AC3, 2 ch)
VTS_09 :
Play Length: 00:48:41
Video: PAL 16:9 (720x576) VBR, Auto Pan&Scan, Auto Letterboxed
Audio:
Russian (Dolby AC3, 2 ch)
* Menus Information *
VIDEO_TS Menu
Video:
PAL 4:3 (720x576) VBR
English Language Unit :
Title Menu
VTS_01 Menu
Video:
PAL 4:3 (720x576) VBR
Audio:
Not specified (Dolby AC3, 2 ch)
English Language Unit :
Root Menu
Chapter (PTT) Menu
VTS_02 Menu
Video:
PAL 4:3 (720x576) VBR
English Language Unit :
Root Menu
Chapter (PTT) Menu
VTS_03 Menu
Video:
PAL 4:3 (720x576) VBR
English Language Unit :
Root Menu
Chapter (PTT) Menu
VTS_04 Menu
Video:
PAL 4:3 (720x576) VBR
English Language Unit :
Root Menu
Chapter (PTT) Menu
VTS_05 Menu
Video:
PAL 4:3 (720x576) VBR
English Language Unit :
Root Menu
Chapter (PTT) Menu
VTS_06 Menu
Video:
PAL 4:3 (720x576) VBR
English Language Unit :
Root Menu
Chapter (PTT) Menu
VTS_07 Menu
Video:
PAL 4:3 (720x576) VBR
English Language Unit :
Root Menu
Chapter (PTT) Menu
VTS_08 Menu
Video:
PAL 4:3 (720x576) VBR
English Language Unit :
Root Menu
Chapter (PTT) Menu
VTS_09 Menu
Video:
PAL 4:3 (720x576) VBR
English Language Unit :
Root Menu
Chapter (PTT) Menu

MediaInfo

Общее
Полное имя : J:\Новинки 2012\Ljubopytnaja.Varvara.2012.DVD9\VIDEO_TS\VTS_05_1.VOB
Формат : MPEG-PS
Размер файла : 1024 Мбайт
Продолжительность : 52 м.
Режим общего битрейта : Переменный
Общий поток : 2719 Кбит/сек
Видео
Идентификатор : 224 (0xE0)
Формат : MPEG Video
Версия формата : Version 2
Профиль формата : [email protected]
Параметр BVOP формата : Да
Параметр матрицы формата : Выборочная
Параметр GOP формата : M=3, N=12
Продолжительность : 52 м.
Вид битрейта : Переменный
Битрейт : 2472 Кбит/сек
Максимальный битрейт : 8000 Кбит/сек
Ширина : 720 пикселей
Высота : 576 пикселей
Соотношение сторон : 16:9
Частота кадров : 25,000 кадров/сек
Стандарт вещания : PAL
Цветовое пространство : YUV
Субдискретизация насыщенности : 4:2:0
Битовая глубина : 8 бит
Тип развёртки : Прогрессивная
Метод сжатия : С потерями
Бит/(Пиксели*Кадры) : 0.238
Размер потока : 931 Мбайт (91%)
Аудио
Идентификатор : 189 (0xBD)-128 (0x80)
Формат : AC-3
Формат/Информация : Audio Coding 3
Расширение режима : CM (complete main)
Параметр Endianness формата : Big
Режим смешивания : DVD-Video
Продолжительность : 52 м.
Вид битрейта : Постоянный
Битрейт : 192 Кбит/сек
Каналы : 2 канала
Расположение каналов : Front: L R
Частота : 48,0 КГц
Битовая глубина : 16 бит
Метод сжатия : С потерями
Размер потока : 72,3 Мбайт (7%)

Скриншоты меню

Скриншоты сериала


-
-Раздача от группы:
Other forum [Profile] [PM]
Display posts from previous:    
Reply to topic

The time now is: Today 17:44

All times are GMT + 3 Hours



You cannot post new topics in this forum
You cannot reply to topics in this forum
You cannot edit your posts in this forum
You cannot delete your posts in this forum
You cannot vote in polls in this forum
You cannot attach files in this forum
You cannot download files in this forum