Today is a free download without charge Download

(Author's Song) Владимир Высоцкий. Спасибо, что живой (Коллекция изд. Амфора, 11 CD) 2011 - 2012, FLAC (image + .cue), lossless

Reply to topic
 
Author
Message

sergej644 ®

Gender:

Longevity: 8 years 4 months

Posts: 657

Location: Klaipeda

Торрент-статистика

Post 07-Feb-2013 17:42

[Quote]

-Владимир Высоцкий. Спасибо, что живой (Коллекция изд. Амфора, 11 CD)- Страна: Россия || Жанр: Author's Song || Год выпуска: 2011 - 2012 || Формат: FLAC (image + .cue) || Битрейт аудио: lossless || Продолжительность: 07:00:34- -

Владимир Высоцкий. Спасибо, что живой (Коллекция издание "Амфора", 11 CD)

-

Владимир Высоцкий - Выйти живым из боя

продолжительность: 00:36:18
01. Штрафные батальоны (02:51)
02. Песня о госпитале (01:06)
03. Братские могилы (01:18)
04. Случай в ресторане (01:48)
05. Песня самолёта-истребителя (03:31)
06. Песня о Земле (02:03)
07. Он не вернулся из боя (02:20)
08. Тот, который не стрелял (02:55)
09. Мы вращаем Землю (03:28)
10. Песня о друге (02:53)
11. Вершина (02:31)
12. Прощание с горами (02:46)
13. Спасите наши души (03:56)
14. Гимн морю и горам (02:47)

лог создания рипа

Код:
Exact Audio Copy V1.0 beta 1 from 15. November 2010
Отчёт EAC об извлечении, выполненном 10. ноября 2011, 19:40
Владимир Высоцкий / Выйти живыи из боя...
Дисковод: _NEC    DV-5800E   Adapter: 0  ID: 1
Режим чтения                 : Достоверность
Использование точного потока : Да
Отключение кэша аудио        : Да
Использование указателей C2  : Нет
Коррекция смещения при чтении                     : 6
Способность читать области Lead-in и Lead-out     : Нет
Заполнение пропущенных сэмплов тишиной            : Да
Удаление блоков с тишиной в начале и конце        : Нет
При вычислениях CRC использовались нулевые сэмплы : Да
Интерфейс                                         : Установленный внешний ASPI-интерфейс
Выходной формат : Внутренние WAV-операции
Формат сэмплов  : 44.100 Гц; 16 бит; стерео
TOC извлечённого CD
     Трек |   Старт  | Длительность | Начальный сектор | Конечный сектор
    ---------------------------------------------------------------------
       1  |  0:00.00 |    2:51.37   |           0      |      12861
       2  |  2:51.37 |    1:06.20   |       12862      |      17831
       3  |  3:57.57 |    1:18.34   |       17832      |      23715
       4  |  5:16.16 |    1:48.52   |       23716      |      31867
       5  |  7:04.68 |    3:31.10   |       31868      |      47702
       6  | 10:36.03 |    2:03.51   |       47703      |      56978
       7  | 12:39.54 |    2:20.04   |       56979      |      67482
       8  | 14:59.58 |    2:55.01   |       67483      |      80608
       9  | 17:54.59 |    3:28.12   |       80609      |      96220
      10  | 21:22.71 |    2:53.18   |       96221      |     109213
      11  | 24:16.14 |    2:31.60   |      109214      |     120598
      12  | 26:47.74 |    2:46.28   |      120599      |     133076
      13  | 29:34.27 |    3:56.29   |      133077      |     150805
      14  | 33:30.56 |    2:47.35   |      150806      |     163365
Характеристики диапазона извлечения и сообщения об ошибках
Выбранный диапазон
     Имя файла C:\Documents and Settings\Admin\Рабочий стол\В.Высоцкий - Выйти живым из боя (2011г.)\Владимир Высоцкий - Выйти живым из боя....wav
     Пиковый уровень 100.0 %
0.7 X
     Качество диапазона 100.0 %
     CRC теста DC20F4EA
     CRC копии DC20F4EA
     Копирование... OK
Ошибок не произошло
AccurateRip: сводка
Трек  1  нет в базе данных
Трек  2  нет в базе данных
Трек  3  нет в базе данных
Трек  4  нет в базе данных
Трек  5  нет в базе данных
Трек  6  нет в базе данных
Трек  7  нет в базе данных
Трек  8  нет в базе данных
Трек  9  нет в базе данных
Трек 10  нет в базе данных
Трек 11  нет в базе данных
Трек 12  нет в базе данных
Трек 13  нет в базе данных
Трек 14  нет в базе данных
Ни одного трека нет в базе AccurateRip
Конец отчёта

содержание индексной карты *cue

Код:
REM GENRE "Авторская песня"
REM DATE 2011
REM DISCID B508820E
REM COMMENT "ExactAudioCopy v1.0b1"
PERFORMER "Владимир Высоцкий"
TITLE "Выйти живым из боя"
FILE "Владимир Высоцкий - Выйти живым из боя....wav" WAVE
  TRACK 01 AUDIO
    TITLE "Штрафные батальоны"
    PERFORMER "Владимир Высоцкий"
    INDEX 01 00:00:00
  TRACK 02 AUDIO
    TITLE "Песня о госпитале"
    PERFORMER "Владимир Высоцкий"
    INDEX 00 02:49:37
    INDEX 01 02:51:37
  TRACK 03 AUDIO
    TITLE "Братские могилы"
    PERFORMER "Владимир Высоцкий"
    INDEX 00 03:55:57
    INDEX 01 03:57:57
  TRACK 04 AUDIO
    TITLE "Случай в ресторане"
    PERFORMER "Владимир Высоцкий"
    INDEX 00 05:14:16
    INDEX 01 05:16:16
  TRACK 05 AUDIO
    TITLE "Песня самолёта-истребителя"
    PERFORMER "Владимир Высоцкий"
    INDEX 00 07:02:68
    INDEX 01 07:04:68
  TRACK 06 AUDIO
    TITLE "Песня о Земле"
    PERFORMER "Владимир Высоцкий"
    INDEX 00 10:34:03
    INDEX 01 10:36:03
  TRACK 07 AUDIO
    TITLE "Он не вернулся из боя"
    PERFORMER "Владимир Высоцкий"
    INDEX 00 12:37:54
    INDEX 01 12:39:54
  TRACK 08 AUDIO
    TITLE "Тот, который не стрелял"
    PERFORMER "Владимир Высоцкий"
    INDEX 00 14:57:58
    INDEX 01 14:59:58
  TRACK 09 AUDIO
    TITLE "Мы вращаем Землю"
    PERFORMER "Владимир Высоцкий"
    INDEX 00 17:52:59
    INDEX 01 17:54:59
  TRACK 10 AUDIO
    TITLE "Песня о друге"
    PERFORMER "Владимир Высоцкий"
    INDEX 00 21:20:71
    INDEX 01 21:22:71
  TRACK 11 AUDIO
    TITLE "Вершина"
    PERFORMER "Владимир Высоцкий"
    INDEX 00 24:14:14
    INDEX 01 24:16:14
  TRACK 12 AUDIO
    TITLE "Прощание с горами"
    PERFORMER "Владимир Высоцкий"
    INDEX 00 26:45:74
    INDEX 01 26:47:74
  TRACK 13 AUDIO
    TITLE "Спасите наши души"
    PERFORMER "Владимир Высоцкий"
    INDEX 00 29:32:27
    INDEX 01 29:34:27
  TRACK 14 AUDIO
    TITLE "Гимн морю и горам"
    PERFORMER "Владимир Высоцкий"
    INDEX 00 33:28:56
    INDEX 01 33:30:56

Владимир Высоцкий - Я был душой дурного общества

продолжительность: 00:36:03
01. Татуировка (02:01)
02. Красное, зелёное (01:02)
03. Наводчица (01:44)
04. Тот, кто раньше с нею был (02:37)
05. Серебряные струны (02:03)
06. Не уводите меня из Весны! (01:58)
07. За меня невеста (02:06)
08. Я в деле (01:17)
09. Песня про стукача (02:20)
10. Эй, шофёр! (01:36)
11. Банька по-белому (07:51)
12. Разбойничья (03:43)
13. Побег на рывок (05:38)

лог создания рипа

Код:
Exact Audio Copy V1.0 beta 1 from 15. November 2010
Отчёт EAC об извлечении, выполненном 17. ноября 2011, 18:37
Владимир Высоцкий / Я был душой дурного общества
Дисковод: _NEC    DV-5800E   Adapter: 0  ID: 1
Режим чтения                 : Достоверность
Использование точного потока : Да
Отключение кэша аудио        : Да
Использование указателей C2  : Нет
Коррекция смещения при чтении                     : 6
Способность читать области Lead-in и Lead-out     : Нет
Заполнение пропущенных сэмплов тишиной            : Да
Удаление блоков с тишиной в начале и конце        : Нет
При вычислениях CRC использовались нулевые сэмплы : Да
Интерфейс                                         : Установленный внешний ASPI-интерфейс
Выходной формат : Внутренние WAV-операции
Формат сэмплов  : 44.100 Гц; 16 бит; стерео
TOC извлечённого CD
     Трек |   Старт  | Длительность | Начальный сектор | Конечный сектор
    ---------------------------------------------------------------------
       1  |  0:00.00 |    2:01.74   |           0      |       9148
       2  |  2:01.74 |    1:02.63   |        9149      |      13861
       3  |  3:04.62 |    1:44.21   |       13862      |      21682
       4  |  4:49.08 |    2:37.02   |       21683      |      33459
       5  |  7:26.10 |    2:03.60   |       33460      |      42744
       6  |  9:29.70 |    1:58.62   |       42745      |      51656
       7  | 11:28.57 |    2:06.25   |       51657      |      61131
       8  | 13:35.07 |    1:17.36   |       61132      |      66942
       9  | 14:52.43 |    2:20.47   |       66943      |      77489
      10  | 17:13.15 |    1:36.60   |       77490      |      84749
      11  | 18:50.00 |    7:51.21   |       84750      |     120095
      12  | 26:41.21 |    3:43.04   |      120096      |     136824
      13  | 30:24.25 |    5:38.58   |      136825      |     162232
Характеристики диапазона извлечения и сообщения об ошибках
Выбранный диапазон
     Имя файла C:\Documents and Settings\Admin\Рабочий стол\В.Выоцкий - Я был душой дурного общества (2011г.)\Владимир Высоцкий - Я был душой дурного общества.wav
     Пиковый уровень 99.9 %
1.5 X
     Качество диапазона 100.0 %
     CRC теста 5A979C04
     CRC копии 5A979C04
     Копирование... OK
Ошибок не произошло
AccurateRip: сводка
Трек  1  нет в базе данных
Трек  2  нет в базе данных
Трек  3  нет в базе данных
Трек  4  нет в базе данных
Трек  5  нет в базе данных
Трек  6  нет в базе данных
Трек  7  нет в базе данных
Трек  8  нет в базе данных
Трек  9  нет в базе данных
Трек 10  нет в базе данных
Трек 11  нет в базе данных
Трек 12  нет в базе данных
Трек 13  нет в базе данных
Ни одного трека нет в базе AccurateRip
Конец отчёта

содержание индексной карты *cue

Код:
REM GENRE "Авторская песня"
REM DATE 2011
REM DISCID 9F08730D
REM COMMENT "ExactAudioCopy v1.0b1"
PERFORMER "Владимир Высоцкий"
TITLE "Я был душой дурного общества"
FILE "Владимир Высоцкий - Я был душой дурного общества.wav" WAVE
  TRACK 01 AUDIO
    TITLE "Татуировка"
    PERFORMER "Владимир Высоцкий"
    FLAGS DCP
    INDEX 01 00:00:00
  TRACK 02 AUDIO
    TITLE "Красное, зелёное"
    PERFORMER "Владимир Высоцкий"
    FLAGS DCP
    INDEX 00 01:59:74
    INDEX 01 02:01:74
  TRACK 03 AUDIO
    TITLE "Наводчица"
    PERFORMER "Владимир Высоцкий"
    FLAGS DCP
    INDEX 00 03:02:62
    INDEX 01 03:04:62
  TRACK 04 AUDIO
    TITLE "Тот, кто раньше с нею был"
    PERFORMER "Владимир Высоцкий"
    FLAGS DCP
    INDEX 00 04:47:08
    INDEX 01 04:49:08
  TRACK 05 AUDIO
    TITLE "Серебряные струны"
    PERFORMER "Владимир Высоцкий"
    FLAGS DCP
    INDEX 00 07:24:10
    INDEX 01 07:26:10
  TRACK 06 AUDIO
    TITLE "Не уводите меня из Весны!"
    PERFORMER "Владимир Высоцкий"
    FLAGS DCP
    INDEX 00 09:27:70
    INDEX 01 09:29:70
  TRACK 07 AUDIO
    TITLE "За меня невеста"
    PERFORMER "Владимир Высоцкий"
    FLAGS DCP
    INDEX 00 11:26:57
    INDEX 01 11:28:57
  TRACK 08 AUDIO
    TITLE "Я в деле"
    PERFORMER "Владимир Высоцкий"
    FLAGS DCP
    INDEX 00 13:33:07
    INDEX 01 13:35:07
  TRACK 09 AUDIO
    TITLE "Песня про стукача"
    PERFORMER "Владимир Высоцкий"
    FLAGS DCP
    INDEX 00 14:50:43
    INDEX 01 14:52:43
  TRACK 10 AUDIO
    TITLE "Эй, шофёр!"
    PERFORMER "Владимир Высоцкий"
    FLAGS DCP
    INDEX 00 17:11:15
    INDEX 01 17:13:15
  TRACK 11 AUDIO
    TITLE "Банька по-белому"
    PERFORMER "Владимир Высоцкий"
    FLAGS DCP
    INDEX 00 18:48:00
    INDEX 01 18:50:00
  TRACK 12 AUDIO
    TITLE "Разбойничья"
    PERFORMER "Владимир Высоцкий"
    FLAGS DCP
    INDEX 00 26:39:21
    INDEX 01 26:41:21
  TRACK 13 AUDIO
    TITLE "Побег на рывок"
    PERFORMER "Владимир Высоцкий"
    FLAGS DCP
    INDEX 00 30:22:25
    INDEX 01 30:24:25

Владимир Высоцкий - Летела жизнь в плохом автомобиле

продолжительность: 00:39:08
01. Бал-маскарад (01:34)
02. Песня завистника (01:43)
03. Ой, где был я вчера (02:49)
04. Про джина (03:01)
05. Из детства (02:02)
06. Песенка о слухах (02:54)
07. Милицейский протокол (03:39)
08. Товарищи учёные! (02:48)
09. Мишка Шифман (03:00)
10. Диалог у телевизора (03:37)
11. Летела жизнь (04:39)
12. Дорогая передача (04:27)
13. Лекция о международном положении (02:50)

лог создания рипа

Код:
Exact Audio Copy V1.0 beta 1 from 15. November 2010
Отчёт EAC об извлечении, выполненном 24. ноября 2011, 18:27
Владимир Высоцкий / Летела жизнь в плохом автомобиле
Дисковод: _NEC    DV-5800E   Adapter: 0  ID: 1
Режим чтения                 : Достоверность
Использование точного потока : Да
Отключение кэша аудио        : Да
Использование указателей C2  : Нет
Коррекция смещения при чтении                     : 6
Способность читать области Lead-in и Lead-out     : Нет
Заполнение пропущенных сэмплов тишиной            : Да
Удаление блоков с тишиной в начале и конце        : Нет
При вычислениях CRC использовались нулевые сэмплы : Да
Интерфейс                                         : Установленный внешний ASPI-интерфейс
Выходной формат : Внутренние WAV-операции
Формат сэмплов  : 44.100 Гц; 16 бит; стерео
TOC извлечённого CD
     Трек |   Старт  | Длительность | Начальный сектор | Конечный сектор
    ---------------------------------------------------------------------
       1  |  0:00.00 |    1:34.22   |           0      |       7071
       2  |  1:34.22 |    1:43.53   |        7072      |      14849
       3  |  3:18.00 |    2:49.62   |       14850      |      27586
       4  |  6:07.62 |    3:01.31   |       27587      |      41192
       5  |  9:09.18 |    2:02.05   |       41193      |      50347
       6  | 11:11.23 |    2:54.40   |       50348      |      63437
       7  | 14:05.63 |    3:39.12   |       63438      |      79874
       8  | 17:45.00 |    2:48.56   |       79875      |      92530
       9  | 20:33.56 |    3:00.13   |       92531      |     106043
      10  | 23:33.69 |    3:37.35   |      106044      |     122353
      11  | 27:11.29 |    4:39.56   |      122354      |     143334
      12  | 31:51.10 |    4:27.22   |      143335      |     163381
      13  | 36:18.32 |    2:50.23   |      163382      |     176154
Характеристики диапазона извлечения и сообщения об ошибках
Выбранный диапазон
     Имя файла C:\Documents and Settings\Admin\Рабочий стол\Высоцкий Владимир - Летела жизнь в плохом автомобиле (2011г.)\Владимир Высоцкий - Летела жизнь в плохом автомобиле.wav
     Пиковый уровень 100.0 %
0.7 X
     Качество диапазона 100.0 %
     CRC теста 55428DAB
     CRC копии 55428DAB
     Копирование... OK
Ошибок не произошло
AccurateRip: сводка
Трек  1  нет в базе данных
Трек  2  нет в базе данных
Трек  3  нет в базе данных
Трек  4  нет в базе данных
Трек  5  нет в базе данных
Трек  6  нет в базе данных
Трек  7  нет в базе данных
Трек  8  нет в базе данных
Трек  9  нет в базе данных
Трек 10  нет в базе данных
Трек 11  нет в базе данных
Трек 12  нет в базе данных
Трек 13  нет в базе данных
Ни одного трека нет в базе AccurateRip
Конец отчёта

содержание индексной карты *cue

Код:
REM GENRE "Авторская песня"
REM DATE 2011
REM DISCID 9D092C0D
REM COMMENT "ExactAudioCopy v1.0b1"
PERFORMER "Владимир Высоцкий"
TITLE "Летела жизнь в плохом автомобиле"
FILE "Владимир Высоцкий - Летела жизнь в плохом автомобиле.wav" WAVE
  TRACK 01 AUDIO
    TITLE "Бал-маскарад"
    PERFORMER "Владимир Высоцкий"
    FLAGS DCP
    INDEX 01 00:00:00
  TRACK 02 AUDIO
    TITLE "Песня завистника"
    PERFORMER "Владимир Высоцкий"
    FLAGS DCP
    INDEX 00 01:32:22
    INDEX 01 01:34:22
  TRACK 03 AUDIO
    TITLE "Ой, где был я вчера"
    PERFORMER "Владимир Высоцкий"
    FLAGS DCP
    INDEX 00 03:16:00
    INDEX 01 03:18:00
  TRACK 04 AUDIO
    TITLE "Про джина"
    PERFORMER "Владимир Высоцкий"
    FLAGS DCP
    INDEX 00 06:05:62
    INDEX 01 06:07:62
  TRACK 05 AUDIO
    TITLE "Из детства"
    PERFORMER "Владимир Высоцкий"
    FLAGS DCP
    INDEX 00 09:07:18
    INDEX 01 09:09:18
  TRACK 06 AUDIO
    TITLE "Песенка о слухах"
    PERFORMER "Владимир Высоцкий"
    FLAGS DCP
    INDEX 00 11:09:23
    INDEX 01 11:11:23
  TRACK 07 AUDIO
    TITLE "Милицейский протокол"
    PERFORMER "Владимир Высоцкий"
    FLAGS DCP
    INDEX 00 14:03:63
    INDEX 01 14:05:63
  TRACK 08 AUDIO
    TITLE "Товарищи учёные!"
    PERFORMER "Владимир Высоцкий"
    FLAGS DCP
    INDEX 00 17:43:00
    INDEX 01 17:45:00
  TRACK 09 AUDIO
    TITLE "Мишка Шифман"
    PERFORMER "Владимир Высоцкий"
    FLAGS DCP
    INDEX 00 20:31:56
    INDEX 01 20:33:56
  TRACK 10 AUDIO
    TITLE "Диалог у телевизора"
    PERFORMER "Владимир Высоцкий"
    FLAGS DCP
    INDEX 00 23:31:69
    INDEX 01 23:33:69
  TRACK 11 AUDIO
    TITLE "Летела жизнь"
    PERFORMER "Владимир Высоцкий"
    FLAGS DCP
    INDEX 00 27:09:29
    INDEX 01 27:11:29
  TRACK 12 AUDIO
    TITLE "Дорогая передача"
    PERFORMER "Владимир Высоцкий"
    FLAGS DCP
    INDEX 00 31:49:10
    INDEX 01 31:51:10
  TRACK 13 AUDIO
    TITLE "Лекция о международном положении"
    PERFORMER "Владимир Высоцкий"
    FLAGS DCP
    INDEX 00 36:16:32
    INDEX 01 36:18:32

Владимир Высоцкий - Больно мне за наш СССР

продолжительность: 00:29:18
01. Песня командировочного (03:16)
02. Поездка в город (02:35)
03. Песенка про йога (01:50)
04. Инструкция перед поездкой за рубеж (04:49)
05. Утренняя гимнастика (01:36)
06. Песня для выезжающих за границу и вернувшихся оттуда (01:48)
07. Письмо к другу (01:33)
08. Возле города Пекина (01:40)
09. Я был слесарь шестого разряда (01:30)
10. У домашних и хищных зверей (01:17)
11. Потеряю истинную веру (00:45)
12. Посещение Музы, или песенка плагиатора (01:53)
13. Не покупают никакой еды (01:55)
14. Маски (02:45)

лог создания рипа

Код:
Exact Audio Copy V1.0 beta 1 from 15. November 2010
Отчёт EAC об извлечении, выполненном 1. декабря 2011, 18:08
Владимир Высоцкий / Больно мне за наш СССР
Дисковод: _NEC    DV-5800E   Adapter: 0  ID: 1
Режим чтения                 : Достоверность
Использование точного потока : Да
Отключение кэша аудио        : Да
Использование указателей C2  : Нет
Коррекция смещения при чтении                     : 6
Способность читать области Lead-in и Lead-out     : Нет
Заполнение пропущенных сэмплов тишиной            : Да
Удаление блоков с тишиной в начале и конце        : Нет
При вычислениях CRC использовались нулевые сэмплы : Да
Интерфейс                                         : Установленный внешний ASPI-интерфейс
Выходной формат : Внутренние WAV-операции
Формат сэмплов  : 44.100 Гц; 16 бит; стерео
TOC извлечённого CD
     Трек |   Старт  | Длительность | Начальный сектор | Конечный сектор
    ---------------------------------------------------------------------
       1  |  0:00.00 |    3:16.44   |           0      |      14743
       2  |  3:16.44 |    2:35.32   |       14744      |      26400
       3  |  5:52.01 |    1:50.34   |       26401      |      34684
       4  |  7:42.35 |    4:49.68   |       34685      |      56427
       5  | 12:32.28 |    1:36.34   |       56428      |      63661
       6  | 14:08.62 |    1:48.63   |       63662      |      71824
       7  | 15:57.50 |    1:33.09   |       71825      |      78808
       8  | 17:30.59 |    1:40.73   |       78809      |      86381
       9  | 19:11.57 |    1:30.58   |       86382      |      93189
      10  | 20:42.40 |    1:17.13   |       93190      |      98977
      11  | 21:59.53 |    0:45.12   |       98978      |     102364
      12  | 22:44.65 |    1:53.51   |      102365      |     110890
      13  | 24:38.41 |    1:55.12   |      110891      |     119527
      14  | 26:33.53 |    2:45.19   |      119528      |     131921
Характеристики диапазона извлечения и сообщения об ошибках
Выбранный диапазон
     Имя файла C:\Documents and Settings\Admin\Рабочий стол\Высоцкий Владимир - Больно мне за наш СССР (2011г.)\Владимир Высоцкий - Больно мне за наш СССР.wav
     Пиковый уровень 99.9 %
0.8 X
     Качество диапазона 99.9 %
     CRC теста F526C3F2
     CRC копии F526C3F2
     Копирование... OK
Ошибок не произошло
AccurateRip: сводка
Трек  1  нет в базе данных
Трек  2  нет в базе данных
Трек  3  нет в базе данных
Трек  4  нет в базе данных
Трек  5  нет в базе данных
Трек  6  нет в базе данных
Трек  7  нет в базе данных
Трек  8  нет в базе данных
Трек  9  нет в базе данных
Трек 10  нет в базе данных
Трек 11  нет в базе данных
Трек 12  нет в базе данных
Трек 13  нет в базе данных
Трек 14  нет в базе данных
Ни одного трека нет в базе AccurateRip
Конец отчёта

содержание индексной карты *cue

Код:
REM GENRE "Авторская песня"
REM DATE 2011
REM DISCID B706DE0E
REM COMMENT "ExactAudioCopy v1.0b1"
PERFORMER "Владимир Высоцкий"
TITLE "Больно мне за наш СССР"
FILE "Владимир Высоцкий - Больно мне за наш СССР.wav" WAVE
  TRACK 01 AUDIO
    TITLE "Песня командировочного"
    PERFORMER "Владимир Высоцкий"
    FLAGS DCP
    INDEX 01 00:00:00
  TRACK 02 AUDIO
    TITLE "Поездка в город"
    PERFORMER "Владимир Высоцкий"
    FLAGS DCP
    INDEX 00 03:14:44
    INDEX 01 03:16:44
  TRACK 03 AUDIO
    TITLE "Песенка про йога"
    PERFORMER "Владимир Высоцкий"
    FLAGS DCP
    INDEX 00 05:50:01
    INDEX 01 05:52:01
  TRACK 04 AUDIO
    TITLE "Инструкция перед поездкой за рубеж"
    PERFORMER "Владимир Высоцкий"
    FLAGS DCP
    INDEX 00 07:40:35
    INDEX 01 07:42:35
  TRACK 05 AUDIO
    TITLE "Утренняя гимнастика"
    PERFORMER "Владимир Высоцкий"
    FLAGS DCP
    INDEX 00 12:30:28
    INDEX 01 12:32:28
  TRACK 06 AUDIO
    TITLE "Песня для выезжающих за границу и вернувшихся оттуда"
    PERFORMER "Владимир Высоцкий"
    FLAGS DCP
    INDEX 00 14:06:62
    INDEX 01 14:08:62
  TRACK 07 AUDIO
    TITLE "Письмо к другу"
    PERFORMER "Владимир Высоцкий"
    FLAGS DCP
    INDEX 00 15:55:50
    INDEX 01 15:57:50
  TRACK 08 AUDIO
    TITLE "Возле города Пекина"
    PERFORMER "Владимир Высоцкий"
    FLAGS DCP
    INDEX 00 17:28:59
    INDEX 01 17:30:59
  TRACK 09 AUDIO
    TITLE "Я был слесарь шестого разряда"
    PERFORMER "Владимир Высоцкий"
    FLAGS DCP
    INDEX 00 19:09:57
    INDEX 01 19:11:57
  TRACK 10 AUDIO
    TITLE "У домашних и хищных зверей"
    PERFORMER "Владимир Высоцкий"
    FLAGS DCP
    INDEX 00 20:40:40
    INDEX 01 20:42:40
  TRACK 11 AUDIO
    TITLE "Потеряю истинную веру"
    PERFORMER "Владимир Высоцкий"
    FLAGS DCP
    INDEX 00 21:57:53
    INDEX 01 21:59:53
  TRACK 12 AUDIO
    TITLE "Посещение Музы, или песенка плагиатора"
    PERFORMER "Владимир Высоцкий"
    FLAGS DCP
    INDEX 00 22:42:65
    INDEX 01 22:44:65
  TRACK 13 AUDIO
    TITLE "Не покупают никакой еды"
    PERFORMER "Владимир Высоцкий"
    FLAGS DCP
    INDEX 00 24:36:41
    INDEX 01 24:38:41
  TRACK 14 AUDIO
    TITLE "Маски"
    PERFORMER "Владимир Высоцкий"
    FLAGS DCP
    INDEX 00 26:31:53
    INDEX 01 26:33:53

Владимир Высоцкий - Любой из нас - ну чем не чародей!

продолжительность: 00:37:12
01. Марш шахтеров (02:03)
02. Обо мне, о поездах и о пустынях (02:31)
03. Песня киноактёра (02:51)
04. Тюменская нефть (04:11)
05. Попутчик (02:34)
06. Москва-Одесса (02:37)
07. Дорожная история (03:14)
08. Про прыгуна в высоту (03:15)
09. Марафон (01:35)
10. Про прыгуна в длину (01:49)
11. Честь шахматной короны I. Подготовка (03:01)
12. Честь шахматной короны II. Игра (02:59)
13. Кто за чем бежит (04:25)

лог создания рипа

Код:
Exact Audio Copy V1.0 beta 1 from 15. November 2010
Отчёт EAC об извлечении, выполненном 8. декабря 2011, 17:59
Владимир Высоцкий / Любой из нас - ну чем не чародей?!
Дисковод: _NEC    DV-5800E   Adapter: 0  ID: 1
Режим чтения                 : Достоверность
Использование точного потока : Да
Отключение кэша аудио        : Да
Использование указателей C2  : Нет
Коррекция смещения при чтении                     : 6
Способность читать области Lead-in и Lead-out     : Нет
Заполнение пропущенных сэмплов тишиной            : Да
Удаление блоков с тишиной в начале и конце        : Нет
При вычислениях CRC использовались нулевые сэмплы : Да
Интерфейс                                         : Установленный внешний ASPI-интерфейс
Выходной формат : Внутренние WAV-операции
Формат сэмплов  : 44.100 Гц; 16 бит; стерео
TOC извлечённого CD
     Трек |   Старт  | Длительность | Начальный сектор | Конечный сектор
    ---------------------------------------------------------------------
       1  |  0:00.00 |    2:03.04   |           0      |       9228
       2  |  2:03.04 |    2:31.60   |        9229      |      20613
       3  |  4:34.64 |    2:51.68   |       20614      |      33506
       4  |  7:26.57 |    4:11.28   |       33507      |      52359
       5  | 11:38.10 |    2:34.02   |       52360      |      63911
       6  | 14:12.12 |    2:37.43   |       63912      |      75729
       7  | 16:49.55 |    3:14.48   |       75730      |      90327
       8  | 20:04.28 |    3:15.06   |       90328      |     104958
       9  | 23:19.34 |    1:35.47   |      104959      |     112130
      10  | 24:55.06 |    1:49.61   |      112131      |     120366
      11  | 26:44.67 |    3:01.67   |      120367      |     134008
      12  | 29:46.59 |    2:59.42   |      134009      |     147475
      13  | 32:46.26 |    4:25.64   |      147476      |     167414
Характеристики диапазона извлечения и сообщения об ошибках
Выбранный диапазон
     Имя файла C:\Documents and Settings\Admin\Рабочий стол\Высоцкий Владимир - Любой из нас - ну чем не чародей (2011г.)\Владимир Высоцкий - Любой из нас - ну чем не чародей!.wav
     Пиковый уровень 99.9 %
1.1 X
     Качество диапазона 100.0 %
     CRC теста 05F83641
     CRC копии 05F83641
     Копирование... OK
Ошибок не произошло
AccurateRip: сводка
Трек  1  нет в базе данных
Трек  2  нет в базе данных
Трек  3  нет в базе данных
Трек  4  нет в базе данных
Трек  5  нет в базе данных
Трек  6  нет в базе данных
Трек  7  нет в базе данных
Трек  8  нет в базе данных
Трек  9  нет в базе данных
Трек 10  нет в базе данных
Трек 11  нет в базе данных
Трек 12  нет в базе данных
Трек 13  нет в базе данных
Ни одного трека нет в базе AccurateRip
Конец отчёта

содержание индексной карты *cue

Код:
REM GENRE "Авторская песня"
REM DATE 2011
REM DISCID A508B80D
REM COMMENT "ExactAudioCopy v1.0b1"
PERFORMER "Владимир Высоцкий"
TITLE "Любой из нас - ну чем не чародей?!"
FILE "Владимир Высоцкий - Любой из нас - ну чем не чародей!.wav" WAVE
  TRACK 01 AUDIO
    TITLE "Марш шахтеров"
    PERFORMER "Владимир Высоцкий"
    FLAGS DCP
    INDEX 01 00:00:00
  TRACK 02 AUDIO
    TITLE "Обо мне, о поездах и о пустынях"
    PERFORMER "Владимир Высоцкий"
    FLAGS DCP
    INDEX 00 02:01:04
    INDEX 01 02:03:04
  TRACK 03 AUDIO
    TITLE "Песня киноактёра"
    PERFORMER "Владимир Высоцкий"
    FLAGS DCP
    INDEX 00 04:32:64
    INDEX 01 04:34:64
  TRACK 04 AUDIO
    TITLE "Тюменская нефть"
    PERFORMER "Владимир Высоцкий"
    FLAGS DCP
    INDEX 00 07:24:57
    INDEX 01 07:26:57
  TRACK 05 AUDIO
    TITLE "Попутчик"
    PERFORMER "Владимир Высоцкий"
    FLAGS DCP
    INDEX 00 11:36:10
    INDEX 01 11:38:10
  TRACK 06 AUDIO
    TITLE "Москва-Одесса"
    PERFORMER "Владимир Высоцкий"
    FLAGS DCP
    INDEX 00 14:10:12
    INDEX 01 14:12:12
  TRACK 07 AUDIO
    TITLE "Дорожная история"
    PERFORMER "Владимир Высоцкий"
    FLAGS DCP
    INDEX 00 16:47:55
    INDEX 01 16:49:55
  TRACK 08 AUDIO
    TITLE "Про прыгуна в высоту"
    PERFORMER "Владимир Высоцкий"
    FLAGS DCP
    INDEX 00 20:02:28
    INDEX 01 20:04:28
  TRACK 09 AUDIO
    TITLE "Марафон"
    PERFORMER "Владимир Высоцкий"
    FLAGS DCP
    INDEX 00 23:17:35
    INDEX 01 23:19:34
  TRACK 10 AUDIO
    TITLE "Про прыгуна в длину"
    PERFORMER "Владимир Высоцкий"
    FLAGS DCP
    INDEX 00 24:53:06
    INDEX 01 24:55:06
  TRACK 11 AUDIO
    TITLE "Честь шахматной короны I. Подготовка"
    PERFORMER "Владимир Высоцкий"
    FLAGS DCP
    INDEX 00 26:42:67
    INDEX 01 26:44:67
  TRACK 12 AUDIO
    TITLE "Честь шахматной короны II. Игра"
    PERFORMER "Владимир Высоцкий"
    FLAGS DCP
    INDEX 00 29:44:59
    INDEX 01 29:46:59
  TRACK 13 AUDIO
    TITLE "Кто за чем бежит"
    PERFORMER "Владимир Высоцкий"
    FLAGS DCP
    INDEX 00 32:44:26
    INDEX 01 32:46:26

Владимир Высоцкий - Лукоморья больше нет

продолжительность: 00:36:49
01. Песня о старом доме (02:36)
02. Каждому хочется малость погреться... (01:20)
03. Сказка про дикого вепря (02:22)
04. Сказка о нечисти (02:48)
05. Сказка о несчастных сказочных персонажах (03:13)
06. Лукоморья больше нет (04:00)
07. Дворянская песня (03:38)
08. Мои похорона (02:45)
09. Песня про белого слона (02:52)
10. Песенка про козла отпущения (03:55)
11. Почему аборигены съели Кука (02:10)
12. Песня Алисы (02:29)
13. Марш антиподов (01:23)
14. Песня попугая (01:13)

лог создания рипа

Код:
Exact Audio Copy V1.0 beta 1 from 15. November 2010
Отчёт EAC об извлечении, выполненном 16. декабря 2011, 20:41
Владимир Высоцкий / Лукоморья больше нет
Дисковод: _NEC    DV-5800E   Adapter: 0  ID: 1
Режим чтения                 : Достоверность
Использование точного потока : Да
Отключение кэша аудио        : Да
Использование указателей C2  : Нет
Коррекция смещения при чтении                     : 6
Способность читать области Lead-in и Lead-out     : Нет
Заполнение пропущенных сэмплов тишиной            : Да
Удаление блоков с тишиной в начале и конце        : Нет
При вычислениях CRC использовались нулевые сэмплы : Да
Интерфейс                                         : Установленный внешний ASPI-интерфейс
Выходной формат : Внутренние WAV-операции
Формат сэмплов  : 44.100 Гц; 16 бит; стерео
TOC извлечённого CD
     Трек |   Старт  | Длительность | Начальный сектор | Конечный сектор
    ---------------------------------------------------------------------
       1  |  0:00.00 |    2:36.43   |           0      |      11742
       2  |  2:36.43 |    1:20.02   |       11743      |      17744
       3  |  3:56.45 |    2:22.72   |       17745      |      28466
       4  |  6:19.42 |    2:48.14   |       28467      |      41080
       5  |  9:07.56 |    3:13.21   |       41081      |      55576
       6  | 12:21.02 |    4:00.43   |       55577      |      73619
       7  | 16:21.45 |    3:38.21   |       73620      |      89990
       8  | 19:59.66 |    2:45.54   |       89991      |     102419
       9  | 22:45.45 |    2:52.19   |      102420      |     115338
      10  | 25:37.64 |    3:55.02   |      115339      |     132965
      11  | 29:32.66 |    2:10.16   |      132966      |     142731
      12  | 31:43.07 |    2:29.68   |      142732      |     153974
      13  | 34:13.00 |    1:23.00   |      153975      |     160199
      14  | 35:36.00 |    1:13.59   |      160200      |     165733
Характеристики диапазона извлечения и сообщения об ошибках
Выбранный диапазон
     Имя файла C:\Documents and Settings\Admin\Рабочий стол\В.Высоцкий - Лукоморья больше нет... (2011г.)\Владимир Высоцкий - Лукоморья больше нет.wav
     Пиковый уровень 99.8 %
0.3 X
     Качество диапазона 100.0 %
     CRC теста 26674AFC
     CRC копии 26674AFC
     Копирование... OK
Ошибок не произошло
AccurateRip: сводка
Трек  1  нет в базе данных
Трек  2  нет в базе данных
Трек  3  нет в базе данных
Трек  4  нет в базе данных
Трек  5  нет в базе данных
Трек  6  нет в базе данных
Трек  7  нет в базе данных
Трек  8  нет в базе данных
Трек  9  нет в базе данных
Трек 10  нет в базе данных
Трек 11  нет в базе данных
Трек 12  нет в базе данных
Трек 13  нет в базе данных
Трек 14  нет в базе данных
Ни одного трека нет в базе AccurateRip
Конец отчёта

содержание индексной карты *cue

Код:
REM GENRE "Авторская песня"
REM DATE 2011
REM DISCID C008A10E
REM COMMENT "ExactAudioCopy v1.0b1"
PERFORMER "Владимир Высоцкий"
TITLE "Лукоморья больше нет"
FILE "Владимир Высоцкий - Лукоморья больше нет.wav" WAVE
  TRACK 01 AUDIO
    TITLE "Песня о старом доме"
    PERFORMER "Владимир Высоцкий"
    FLAGS DCP
    INDEX 01 00:00:00
  TRACK 02 AUDIO
    TITLE "Каждому хочется малость погреться..."
    PERFORMER "Владимир Высоцкий"
    FLAGS DCP
    INDEX 00 02:34:43
    INDEX 01 02:36:43
  TRACK 03 AUDIO
    TITLE "Сказка про дикого вепря"
    PERFORMER "Владимир Высоцкий"
    FLAGS DCP
    INDEX 00 03:54:45
    INDEX 01 03:56:45
  TRACK 04 AUDIO
    TITLE "Сказка о нечисти"
    PERFORMER "Владимир Высоцкий"
    FLAGS DCP
    INDEX 00 06:17:42
    INDEX 01 06:19:42
  TRACK 05 AUDIO
    TITLE "Сказка о несчастных сказочных персонажах"
    PERFORMER "Владимир Высоцкий"
    FLAGS DCP
    INDEX 00 09:05:56
    INDEX 01 09:07:56
  TRACK 06 AUDIO
    TITLE "Лукоморья больше нет"
    PERFORMER "Владимир Высоцкий"
    FLAGS DCP
    INDEX 00 12:19:02
    INDEX 01 12:21:02
  TRACK 07 AUDIO
    TITLE "Дворянская песня"
    PERFORMER "Владимир Высоцкий"
    FLAGS DCP
    INDEX 00 16:19:45
    INDEX 01 16:21:45
  TRACK 08 AUDIO
    TITLE "Мои похорона"
    PERFORMER "Владимир Высоцкий"
    FLAGS DCP
    INDEX 00 19:57:66
    INDEX 01 19:59:66
  TRACK 09 AUDIO
    TITLE "Песня про белого слона"
    PERFORMER "Владимир Высоцкий"
    FLAGS DCP
    INDEX 00 22:43:45
    INDEX 01 22:45:45
  TRACK 10 AUDIO
    TITLE "Песенка про козла отпущения"
    PERFORMER "Владимир Высоцкий"
    FLAGS DCP
    INDEX 00 25:35:64
    INDEX 01 25:37:64
  TRACK 11 AUDIO
    TITLE "Почему аборигены съели Кука"
    PERFORMER "Владимир Высоцкий"
    FLAGS DCP
    INDEX 00 29:30:66
    INDEX 01 29:32:66
  TRACK 12 AUDIO
    TITLE "Песня Алисы"
    PERFORMER "Владимир Высоцкий"
    FLAGS DCP
    INDEX 00 31:41:07
    INDEX 01 31:43:07
  TRACK 13 AUDIO
    TITLE " Марш антиподов"
    PERFORMER "Владимир Высоцкий"
    FLAGS DCP
    INDEX 00 34:11:00
    INDEX 01 34:13:00
  TRACK 14 AUDIO
    TITLE "Песня попугая"
    PERFORMER "Владимир Высоцкий"
    FLAGS DCP
    INDEX 00 35:34:00
    INDEX 01 35:36:00

Владимир Высоцкий - Приготовьтесь - сейчас будет грустно

продолжительность: 00:44:55
01. Охота на волков (03:05)
02. Баллада о бане (02:50)
03. Прерванный полет (04:11)
04. Очи черные II. Чужой дом (02:49)
05. Гололед (01:27)
06. Песенка о переселении душ (02:11)
07. Песня про первые ряды (03:15)
08. Я несла свою беду... (02:50)
09. Песенка про мангустов (03:10)
10. Заповедник (05:58)
11. Притча о Правде и Лжи (05:03)
12. Дайте собакам мяса (01:40)
13. Оловянные солдатики (02:07)
14. Зарыты в нашу память на века... (04:13)

лог создания рипа

Код:
Exact Audio Copy V1.0 beta 1 from 15. November 2010
Отчёт EAC об извлечении, выполненном 22. декабря 2011, 17:06
Владимир Высоцкий / Приготовьтесь - сейчас будет грустно
Дисковод: _NEC    DV-5800E   Adapter: 0  ID: 1
Режим чтения                 : Достоверность
Использование точного потока : Да
Отключение кэша аудио        : Да
Использование указателей C2  : Нет
Коррекция смещения при чтении                     : 6
Способность читать области Lead-in и Lead-out     : Нет
Заполнение пропущенных сэмплов тишиной            : Да
Удаление блоков с тишиной в начале и конце        : Нет
При вычислениях CRC использовались нулевые сэмплы : Да
Интерфейс                                         : Установленный внешний ASPI-интерфейс
Выходной формат : Внутренние WAV-операции
Формат сэмплов  : 44.100 Гц; 16 бит; стерео
TOC извлечённого CD
     Трек |   Старт  | Длительность | Начальный сектор | Конечный сектор
    ---------------------------------------------------------------------
       1  |  0:00.00 |    3:05.20   |           0      |      13894
       2  |  3:05.20 |    2:50.65   |       13895      |      26709
       3  |  5:56.10 |    4:11.40   |       26710      |      45574
       4  | 10:07.50 |    2:49.71   |       45575      |      58320
       5  | 12:57.46 |    1:27.10   |       58321      |      64855
       6  | 14:24.56 |    2:11.62   |       64856      |      74742
       7  | 16:36.43 |    3:15.69   |       74743      |      89436
       8  | 19:52.37 |    2:50.07   |       89437      |     102193
       9  | 22:42.44 |    3:10.24   |      102194      |     116467
      10  | 25:52.68 |    5:58.03   |      116468      |     143320
      11  | 31:50.71 |    5:03.33   |      143321      |     166078
      12  | 36:54.29 |    1:40.27   |      166079      |     173605
      13  | 38:34.56 |    2:07.21   |      173606      |     183151
      14  | 40:42.02 |    4:13.37   |      183152      |     202163
Характеристики диапазона извлечения и сообщения об ошибках
Выбранный диапазон
     Имя файла C:\Documents and Settings\Admin\Рабочий стол\В.Высоцкий - Приготовьтесь - сейчас будет грустно...(2011г.)\Владимир Высоцкий - Приготовьтесь - сейчас будет грустно.wav
     Пиковый уровень 99.9 %
0.8 X
     Качество диапазона 100.0 %
     CRC теста 13C1EC11
     CRC копии 13C1EC11
     Копирование... OK
Ошибок не произошло
AccurateRip: сводка
Трек  1  нет в базе данных
Трек  2  нет в базе данных
Трек  3  нет в базе данных
Трек  4  нет в базе данных
Трек  5  нет в базе данных
Трек  6  нет в базе данных
Трек  7  нет в базе данных
Трек  8  нет в базе данных
Трек  9  нет в базе данных
Трек 10  нет в базе данных
Трек 11  нет в базе данных
Трек 12  нет в базе данных
Трек 13  нет в базе данных
Трек 14  нет в базе данных
Ни одного трека нет в базе AccurateRip
Конец отчёта

содержание индексной карты *cue

Код:
REM GENRE "Авторская песня"
REM DATE 2011
REM DISCID D40A870E
REM COMMENT "ExactAudioCopy v1.0b1"
PERFORMER "Владимир Высоцкий"
TITLE "Приготовьтесь - сейчас будет грустно"
FILE "Владимир Высоцкий - Приготовьтесь - сейчас будет грустно.wav" WAVE
  TRACK 01 AUDIO
    TITLE "Охота на волков"
    PERFORMER "Владимир Высоцкий"
    FLAGS DCP
    INDEX 01 00:00:00
  TRACK 02 AUDIO
    TITLE "Баллада о бане"
    PERFORMER "Владимир Высоцкий"
    FLAGS DCP
    INDEX 00 03:03:20
    INDEX 01 03:05:20
  TRACK 03 AUDIO
    TITLE "Прерванный полет"
    PERFORMER "Владимир Высоцкий"
    FLAGS DCP
    INDEX 00 05:54:10
    INDEX 01 05:56:10
  TRACK 04 AUDIO
    TITLE "Очи черные II. Чужой дом"
    PERFORMER "Владимир Высоцкий"
    FLAGS DCP
    INDEX 00 10:05:50
    INDEX 01 10:07:50
  TRACK 05 AUDIO
    TITLE "Гололед"
    PERFORMER "Владимир Высоцкий"
    FLAGS DCP
    INDEX 00 12:55:46
    INDEX 01 12:57:46
  TRACK 06 AUDIO
    TITLE "Песенка о переселении душ"
    PERFORMER "Владимир Высоцкий"
    FLAGS DCP
    INDEX 00 14:22:56
    INDEX 01 14:24:56
  TRACK 07 AUDIO
    TITLE "Песня про первые ряды"
    PERFORMER "Владимир Высоцкий"
    FLAGS DCP
    INDEX 00 16:34:43
    INDEX 01 16:36:43
  TRACK 08 AUDIO
    TITLE "Я несла свою беду..."
    PERFORMER "Владимир Высоцкий"
    FLAGS DCP
    INDEX 00 19:50:37
    INDEX 01 19:52:37
  TRACK 09 AUDIO
    TITLE "Песенка про мангустов"
    PERFORMER "Владимир Высоцкий"
    FLAGS DCP
    INDEX 00 22:40:44
    INDEX 01 22:42:44
  TRACK 10 AUDIO
    TITLE "Заповедник"
    PERFORMER "Владимир Высоцкий"
    FLAGS DCP
    INDEX 00 25:50:68
    INDEX 01 25:52:68
  TRACK 11 AUDIO
    TITLE "Притча о Правде и Лжи"
    PERFORMER "Владимир Высоцкий"
    FLAGS DCP
    INDEX 00 31:48:71
    INDEX 01 31:50:71
  TRACK 12 AUDIO
    TITLE "Дайте собакам мяса"
    PERFORMER "Владимир Высоцкий"
    FLAGS DCP
    INDEX 00 36:52:29
    INDEX 01 36:54:29
  TRACK 13 AUDIO
    TITLE "Оловянные солдатики"
    PERFORMER "Владимир Высоцкий"
    FLAGS DCP
    INDEX 00 38:32:56
    INDEX 01 38:34:56
  TRACK 14 AUDIO
    TITLE "Зарыты в нашу память на века..."
    PERFORMER "Владимир Высоцкий"
    FLAGS DCP
    INDEX 00 40:40:02
    INDEX 01 40:42:02

Владимир Высоцкий - Ловите ветер всеми парусами!

продолжительность: 00:43:55
01. Марш физиков (02:40)
02. Песня студентов-археологов (01:32)
03. В холода, в холода... (01:54)
04. Песня космических негодяев (02:14)
05. Давно смолкли залпы орудий... (02:12)
06. Марш аквалангистов (01:45)
07. Белое безмолвие (02:18)
08. Натянутый канат (03:40)
09. Сначала было Слово печали и тоски... (02:31)
10. Театрально-тюремный этюд на Таганские темы (04:21)
11. Ещё не вечер (03:16)
12. Юрию Петровичу Любимову (04:22)
13. Штормит весь вечер, и пока... (03:08)
14. Памяти Василия Шукшина (03:02)
15. Пожары (04:51)

лог создания рипа

Код:
Exact Audio Copy V1.0 beta 1 from 15. November 2010
Отчёт EAC об извлечении, выполненном 29. декабря 2011, 18:13
Владимир Высоцкий / Ловите ветер всеми парусами!
Дисковод: _NEC    DV-5800E   Adapter: 0  ID: 1
Режим чтения                 : Достоверность
Использование точного потока : Да
Отключение кэша аудио        : Да
Использование указателей C2  : Нет
Коррекция смещения при чтении                     : 6
Способность читать области Lead-in и Lead-out     : Нет
Заполнение пропущенных сэмплов тишиной            : Да
Удаление блоков с тишиной в начале и конце        : Нет
При вычислениях CRC использовались нулевые сэмплы : Да
Интерфейс                                         : Установленный внешний ASPI-интерфейс
Выходной формат : Внутренние WAV-операции
Формат сэмплов  : 44.100 Гц; 16 бит; стерео
TOC извлечённого CD
     Трек |   Старт  | Длительность | Начальный сектор | Конечный сектор
    ---------------------------------------------------------------------
       1  |  0:00.00 |    2:40.36   |           0      |      12035
       2  |  2:40.36 |    1:32.55   |       12036      |      18990
       3  |  4:13.16 |    1:54.56   |       18991      |      27596
       4  |  6:07.72 |    2:14.66   |       27597      |      37712
       5  |  8:22.63 |    2:12.57   |       37713      |      47669
       6  | 10:35.45 |    1:45.13   |       47670      |      55557
       7  | 12:20.58 |    2:18.74   |       55558      |      65981
       8  | 14:39.57 |    3:40.51   |       65982      |      82532
       9  | 18:20.33 |    2:31.07   |       82533      |      93864
      10  | 20:51.40 |    4:21.29   |       93865      |     113468
      11  | 25:12.69 |    3:16.27   |      113469      |     128195
      12  | 28:29.21 |    4:22.66   |      128196      |     147911
      13  | 32:52.12 |    3:08.45   |      147912      |     162056
      14  | 36:00.57 |    3:02.34   |      162057      |     175740
      15  | 39:03.16 |    4:51.73   |      175741      |     197638
Характеристики диапазона извлечения и сообщения об ошибках
Выбранный диапазон
     Имя файла C:\Documents and Settings\Admin\Рабочий стол\В.Высоцкий - Ловите ветер всеми парусами! (2011г.)\Владимир Высоцкий - Ловите ветер всеми парусами!.wav
     Пиковый уровень 100.0 %
1.0 X
     Качество диапазона 100.0 %
     CRC теста 1CB57E16
     CRC копии 1CB57E16
     Копирование... OK
Ошибок не произошло
AccurateRip: сводка
Трек  1  нет в базе данных
Трек  2  нет в базе данных
Трек  3  нет в базе данных
Трек  4  нет в базе данных
Трек  5  нет в базе данных
Трек  6  нет в базе данных
Трек  7  нет в базе данных
Трек  8  нет в базе данных
Трек  9  нет в базе данных
Трек 10  нет в базе данных
Трек 11  нет в базе данных
Трек 12  нет в базе данных
Трек 13  нет в базе данных
Трек 14  нет в базе данных
Трек 15  нет в базе данных
Ни одного трека нет в базе AccurateRip
Конец отчёта

содержание индексной карты *cue

Код:
REM GENRE "Авторская песня"
REM DATE 2011
REM DISCID B20A4B0F
REM COMMENT "ExactAudioCopy v1.0b1"
PERFORMER "Владимир Высоцкий"
TITLE "Ловите ветер всеми парусами!"
FILE "Владимир Высоцкий - Ловите ветер всеми парусами!.wav" WAVE
  TRACK 01 AUDIO
    TITLE "Марш физиков"
    PERFORMER "Владимир Высоцкий"
    FLAGS DCP
    INDEX 01 00:00:00
  TRACK 02 AUDIO
    TITLE "Песня студентов-археологов"
    PERFORMER "Владимир Высоцкий"
    FLAGS DCP
    INDEX 00 02:38:36
    INDEX 01 02:40:36
  TRACK 03 AUDIO
    TITLE "В холода, в холода..."
    PERFORMER "Владимир Высоцкий"
    FLAGS DCP
    INDEX 00 04:11:16
    INDEX 01 04:13:16
  TRACK 04 AUDIO
    TITLE "Песня космических негодяев"
    PERFORMER "Владимир Высоцкий"
    FLAGS DCP
    INDEX 00 06:05:72
    INDEX 01 06:07:72
  TRACK 05 AUDIO
    TITLE "Давно смолкли залпы орудий..."
    PERFORMER "Владимир Высоцкий"
    FLAGS DCP
    INDEX 00 08:20:63
    INDEX 01 08:22:63
  TRACK 06 AUDIO
    TITLE "Марш аквалангистов"
    PERFORMER "Владимир Высоцкий"
    FLAGS DCP
    INDEX 00 10:33:45
    INDEX 01 10:35:45
  TRACK 07 AUDIO
    TITLE "Белое безмолвие"
    PERFORMER "Владимир Высоцкий"
    FLAGS DCP
    INDEX 00 12:18:58
    INDEX 01 12:20:58
  TRACK 08 AUDIO
    TITLE "Натянутый канат"
    PERFORMER "Владимир Высоцкий"
    FLAGS DCP
    INDEX 00 14:37:57
    INDEX 01 14:39:57
  TRACK 09 AUDIO
    TITLE "Сначала было Слово печали и тоски..."
    PERFORMER "Владимир Высоцкий"
    FLAGS DCP
    INDEX 00 18:18:33
    INDEX 01 18:20:33
  TRACK 10 AUDIO
    TITLE "Театрально-тюремный этюд на Таганские темы"
    PERFORMER "Владимир Высоцкий"
    FLAGS DCP
    INDEX 00 20:49:40
    INDEX 01 20:51:40
  TRACK 11 AUDIO
    TITLE "Ещё не вечер"
    PERFORMER "Владимир Высоцкий"
    FLAGS DCP
    INDEX 00 25:10:69
    INDEX 01 25:12:69
  TRACK 12 AUDIO
    TITLE "Юрию Петровичу Любимову"
    PERFORMER "Владимир Высоцкий"
    FLAGS DCP
    INDEX 00 28:27:21
    INDEX 01 28:29:21
  TRACK 13 AUDIO
    TITLE "Штормит весь вечер, и пока..."
    PERFORMER "Владимир Высоцкий"
    FLAGS DCP
    INDEX 00 32:50:12
    INDEX 01 32:52:12
  TRACK 14 AUDIO
    TITLE "Памяти Василия Шукшина"
    PERFORMER "Владимир Высоцкий"
    FLAGS DCP
    INDEX 00 35:58:57
    INDEX 01 36:00:57
  TRACK 15 AUDIO
    TITLE "Пожары"
    PERFORMER "Владимир Высоцкий"
    FLAGS DCP
    INDEX 00 39:01:16
    INDEX 01 39:03:16

Владимир Высоцкий - Не кричи нежных слов, не кричи

продолжительность: 00:32:42
01. Большой Каретный (01:26)
02. Песня о нейтральной полосе (02:11)
03. Мой друг уехал в Магадан… (02:13)
04. Она была в Париже (01:34)
05. Дом хрустальный (02:14)
06. Песенка ни про что, или что случилось в Африке (01:33)
07. Мне каждый вечер зажигают свечи... (01:57)
08. Ноль семь (02:30)
09. Старательская (00:50)
10. Про любовь в каменном веке (01:25)
11. Здесь лапы у елей дрожат на весу... (03:35)
12. Баллада о двух погибших лебедях (02:16)
13. В младенчестве нас матери пугали... (03:04)
14. Райские яблоки (05:48)

лог создания рипа

Код:
Exact Audio Copy V1.0 beta 1 from 15. November 2010
Отчёт EAC об извлечении, выполненном 15. января 2012, 0:50
Владимир Высоцкий / Не кричи нежных слов, не кричи...
Дисковод: Optiarc DVD RW AD-7260S   Adapter: 1  ID: 0
Режим чтения                 : Достоверность
Использование точного потока : Да
Отключение кэша аудио        : Да
Использование указателей C2  : Нет
Коррекция смещения при чтении                     : 48
Способность читать области Lead-in и Lead-out     : Нет
Заполнение пропущенных сэмплов тишиной            : Да
Удаление блоков с тишиной в начале и конце        : Нет
При вычислениях CRC использовались нулевые сэмплы : Да
Интерфейс                                         : Встроенный Win32-интерфейс для Win NT/2000
Выходной формат : Внутренние WAV-операции
Формат сэмплов  : 44.100 Гц; 16 бит; стерео
TOC извлечённого CD
     Трек |   Старт  | Длительность | Начальный сектор | Конечный сектор
    ---------------------------------------------------------------------
       1  |  0:00.00 |    1:26.44   |           0      |       6493
       2  |  1:26.44 |    2:11.31   |        6494      |      16349
       3  |  3:38.00 |    2:13.15   |       16350      |      26339
       4  |  5:51.15 |    1:34.41   |       26340      |      33430
       5  |  7:25.56 |    2:14.23   |       33431      |      43503
       6  |  9:40.04 |    1:33.56   |       43504      |      50534
       7  | 11:13.60 |    1:57.73   |       50535      |      59382
       8  | 13:11.58 |    2:30.21   |       59383      |      70653
       9  | 15:42.04 |    0:50.13   |       70654      |      74416
      10  | 16:32.17 |    1:25.01   |       74417      |      80792
      11  | 17:57.18 |    3:35.71   |       80793      |      96988
      12  | 21:33.14 |    2:16.09   |       96989      |     107197
      13  | 23:49.23 |    3:04.39   |      107198      |     121036
      14  | 26:53.62 |    5:48.20   |      121037      |     147156
Характеристики диапазона извлечения и сообщения об ошибках
Выбранный диапазон
     Имя файла C:\Users\Анатолий\Desktop\Музыка\В.Высоцкий-Не кричи нежных слов\Владимир Высоцкий - Не кричи нежных слов, не кричи....wav
     Пиковый уровень 100.0 %
0.6 X
     Качество диапазона 100.0 %
     CRC теста 626AEBF0
     CRC копии 626AEBF0
     Копирование... OK
Ошибок не произошло
AccurateRip: сводка
Трек  1  нет в базе данных
Трек  2  нет в базе данных
Трек  3  нет в базе данных
Трек  4  нет в базе данных
Трек  5  нет в базе данных
Трек  6  нет в базе данных
Трек  7  нет в базе данных
Трек  8  нет в базе данных
Трек  9  нет в базе данных
Трек 10  нет в базе данных
Трек 11  нет в базе данных
Трек 12  нет в базе данных
Трек 13  нет в базе данных
Трек 14  нет в базе данных
Ни одного трека нет в базе AccurateRip
Конец отчёта

содержание индексной карты *cue

Код:
REM GENRE "Авторская песня"
REM DATE 2012
REM DISCID C307AA0E
REM COMMENT "ExactAudioCopy v1.0b1"
PERFORMER "Владимир Высоцкий"
TITLE "Не кричи нежных слов, не кричи"
FILE "Владимир Высоцкий - Не кричи нежных слов, не кричи.wav" WAVE
  TRACK 01 AUDIO
    TITLE "Большой Каретный"
    PERFORMER "Владимир Высоцкий"
    FLAGS DCP
    INDEX 01 00:00:00
  TRACK 02 AUDIO
    TITLE "Песня о нейтральной полосе"
    PERFORMER "Владимир Высоцкий"
    FLAGS DCP
    INDEX 00 01:24:44
    INDEX 01 01:26:44
  TRACK 03 AUDIO
    TITLE "Мой друг уехал в Магадан…"
    PERFORMER "Владимир Высоцкий"
    FLAGS DCP
    INDEX 00 03:36:00
    INDEX 01 03:38:00
  TRACK 04 AUDIO
    TITLE "Она была в Париже"
    PERFORMER "Владимир Высоцкий"
    FLAGS DCP
    INDEX 00 05:49:15
    INDEX 01 05:51:15
  TRACK 05 AUDIO
    TITLE "Дом хрустальный"
    PERFORMER "Владимир Высоцкий"
    FLAGS DCP
    INDEX 00 07:23:56
    INDEX 01 07:25:56
  TRACK 06 AUDIO
    TITLE "Песенка ни про что, или что случилось в Африке"
    PERFORMER "Владимир Высоцкий"
    FLAGS DCP
    INDEX 00 09:38:04
    INDEX 01 09:40:04
  TRACK 07 AUDIO
    TITLE "Мне каждый вечер зажигают свечи..."
    PERFORMER "Владимир Высоцкий"
    FLAGS DCP
    INDEX 00 11:11:60
    INDEX 01 11:13:60
  TRACK 08 AUDIO
    TITLE "Ноль семь"
    PERFORMER "Владимир Высоцкий"
    FLAGS DCP
    INDEX 00 13:09:58
    INDEX 01 13:11:58
  TRACK 09 AUDIO
    TITLE "Старательская"
    PERFORMER "Владимир Высоцкий"
    FLAGS DCP
    INDEX 00 15:40:04
    INDEX 01 15:42:04
  TRACK 10 AUDIO
    TITLE "Про любовь в каменном веке"
    PERFORMER "Владимир Высоцкий"
    FLAGS DCP
    INDEX 00 16:30:17
    INDEX 01 16:32:17
  TRACK 11 AUDIO
    TITLE "Здесь лапы у елей дрожат на весу..."
    PERFORMER "Владимир Высоцкий"
    FLAGS DCP
    INDEX 00 17:55:18
    INDEX 01 17:57:18
  TRACK 12 AUDIO
    TITLE "Баллада о двух погибших лебедях"
    PERFORMER "Владимир Высоцкий"
    FLAGS DCP
    INDEX 00 21:31:14
    INDEX 01 21:33:14
  TRACK 13 AUDIO
    TITLE "В младенчестве нас матери пугали..."
    PERFORMER "Владимир Высоцкий"
    FLAGS DCP
    INDEX 00 23:47:23
    INDEX 01 23:49:23
  TRACK 14 AUDIO
    TITLE "Райские яблоки"
    PERFORMER "Владимир Высоцкий"
    FLAGS DCP
    INDEX 00 26:51:62
    INDEX 01 26:53:62

Владимир Высоцкий - Каюсь! Каюсь! Каюсь!

продолжительность: 00:47:09
01. Парус (01:18)
02. Моя цыганская (05:15)
03. Один музыкант объяснил мне пространно... (01:58)
04. Я уехал в Магадан (01:57)
05. Я не люблю (02:09)
06. Нет меня - я покинул Расею... (01:53)
07. Певец у микрофона (04:17)
08. Горизонт (03:05)
09. Кони привередливые (04:59)
10. Памятник (04:22)
11. Я из дела ушел (02:47)
12. Баллада о детстве (05:34)
13. Песня о судьбе (04:01)
14. Грусть моя, тоска моя (03:28)

лог создания рипа

Код:
Exact Audio Copy V1.0 beta 1 from 15. November 2010
Отчёт EAC об извлечении, выполненном 19. января 2012, 19:44
Владимир Высоцкий / Каюсь! Каюсь! Каюсь!
Дисковод: Optiarc DVD RW AD-7260S   Adapter: 1  ID: 0
Режим чтения                 : Достоверность
Использование точного потока : Да
Отключение кэша аудио        : Да
Использование указателей C2  : Нет
Коррекция смещения при чтении                     : 48
Способность читать области Lead-in и Lead-out     : Нет
Заполнение пропущенных сэмплов тишиной            : Да
Удаление блоков с тишиной в начале и конце        : Нет
При вычислениях CRC использовались нулевые сэмплы : Да
Интерфейс                                         : Встроенный Win32-интерфейс для Win NT/2000
Выходной формат : Внутренние WAV-операции
Формат сэмплов  : 44.100 Гц; 16 бит; стерео
TOC извлечённого CD
     Трек |   Старт  | Длительность | Начальный сектор | Конечный сектор
    ---------------------------------------------------------------------
       1  |  0:00.00 |    1:18.22   |           0      |       5871
       2  |  1:18.22 |    5:15.56   |        5872      |      29552
       3  |  6:34.03 |    1:58.18   |       29553      |      38420
       4  |  8:32.21 |    1:57.21   |       38421      |      47216
       5  | 10:29.42 |    2:09.60   |       47217      |      56951
       6  | 12:39.27 |    1:53.57   |       56952      |      65483
       7  | 14:33.09 |    4:17.18   |       65484      |      84776
       8  | 18:50.27 |    3:05.74   |       84777      |      98725
       9  | 21:56.26 |    4:59.25   |       98726      |     121175
      10  | 26:55.51 |    4:22.05   |      121176      |     140830
      11  | 31:17.56 |    2:47.00   |      140831      |     153355
      12  | 34:04.56 |    5:34.74   |      153356      |     178479
      13  | 39:39.55 |    4:01.33   |      178480      |     196587
      14  | 43:41.13 |    3:28.26   |      196588      |     212213
Характеристики диапазона извлечения и сообщения об ошибках
Выбранный диапазон
     Имя файла C:\Users\Анатолий\Desktop\Музыка\В.Высоцкий - Каюсь! Каюсь! Каюсь!\Владимир Высоцкий - Каюсь! Каюсь! Каюсь!.wav
     Пиковый уровень 99.9 %
0.2 X
     Качество диапазона 99.9 %
     CRC теста 8054BEED
     CRC копии 8054BEED
     Копирование... OK
Ошибок не произошло
AccurateRip: сводка
Трек  1  нет в базе данных
Трек  2  нет в базе данных
Трек  3  нет в базе данных
Трек  4  нет в базе данных
Трек  5  нет в базе данных
Трек  6  нет в базе данных
Трек  7  нет в базе данных
Трек  8  нет в базе данных
Трек  9  нет в базе данных
Трек 10  нет в базе данных
Трек 11  нет в базе данных
Трек 12  нет в базе данных
Трек 13  нет в базе данных
Трек 14  нет в базе данных
Ни одного трека нет в базе AccurateRip
Конец отчёта

содержание индексной карты *cue

Код:
REM GENRE "Авторская песня"
REM DATE 2012
REM DISCID B50B0D0E
REM COMMENT "ExactAudioCopy v1.0b1"
PERFORMER "Владимир Высоцкий"
TITLE "Каюсь! Каюсь! Каюсь!"
FILE "Владимир Высоцкий - Каюсь! Каюсь! Каюсь!.wav" WAVE
  TRACK 01 AUDIO
    TITLE "Парус"
    PERFORMER "Владимир Высоцкий"
    FLAGS DCP
    INDEX 01 00:00:00
  TRACK 02 AUDIO
    TITLE "Моя цыганская"
    PERFORMER "Владимир Высоцкий"
    FLAGS DCP
    INDEX 00 01:16:22
    INDEX 01 01:18:22
  TRACK 03 AUDIO
    TITLE "Один музыкант объяснил мне пространно..."
    PERFORMER "Владимир Высоцкий"
    FLAGS DCP
    INDEX 00 06:32:03
    INDEX 01 06:34:03
  TRACK 04 AUDIO
    TITLE "Я уехал в Магадан"
    PERFORMER "Владимир Высоцкий"
    FLAGS DCP
    INDEX 00 08:30:21
    INDEX 01 08:32:21
  TRACK 05 AUDIO
    TITLE "Я не люблю"
    PERFORMER "Владимир Высоцкий"
    FLAGS DCP
    INDEX 00 10:27:42
    INDEX 01 10:29:42
  TRACK 06 AUDIO
    TITLE "Нет меня - я покинул Расею..."
    PERFORMER "Владимир Высоцкий"
    FLAGS DCP
    INDEX 00 12:37:27
    INDEX 01 12:39:27
  TRACK 07 AUDIO
    TITLE "Певец у микрофона"
    PERFORMER "Владимир Высоцкий"
    FLAGS DCP
    INDEX 00 14:31:09
    INDEX 01 14:33:09
  TRACK 08 AUDIO
    TITLE "Горизонт"
    PERFORMER "Владимир Высоцкий"
    FLAGS DCP
    INDEX 00 18:48:27
    INDEX 01 18:50:27
  TRACK 09 AUDIO
    TITLE "Кони привередливые"
    PERFORMER "Владимир Высоцкий"
    FLAGS DCP
    INDEX 00 21:54:26
    INDEX 01 21:56:26
  TRACK 10 AUDIO
    TITLE "Памятник"
    PERFORMER "Владимир Высоцкий"
    FLAGS DCP
    INDEX 00 26:53:51
    INDEX 01 26:55:51
  TRACK 11 AUDIO
    TITLE "Я из дела ушел"
    PERFORMER "Владимир Высоцкий"
    FLAGS DCP
    INDEX 00 31:15:56
    INDEX 01 31:17:56
  TRACK 12 AUDIO
    TITLE "Баллада о детстве"
    PERFORMER "Владимир Высоцкий"
    FLAGS DCP
    INDEX 00 34:02:56
    INDEX 01 34:04:56
  TRACK 13 AUDIO
    TITLE "Песня о судьбе"
    PERFORMER "Владимир Высоцкий"
    FLAGS DCP
    INDEX 00 39:37:55
    INDEX 01 39:39:55
  TRACK 14 AUDIO
    TITLE "Грусть моя, тоска моя"
    PERFORMER "Владимир Высоцкий"
    FLAGS DCP
    INDEX 00 43:39:13
    INDEX 01 43:41:13

Владимир Высоцкий - Вот и сбывается всё, что пророчится

продолжительность: 00:37:00
01. Песня Бродского (02:23)
02. Песня бандитов (01:32)
03. Песня Рябого (01:40)
04. Куплеты Бенгальского (01:46)
05. Романс (03:08)
06. Цыганская песня (01:37)
07. Баллада о манекенах (06:10)
08. Баллада об уходе в рай (03:14)
09. Скоморохи на ярмарке (05:41)
10. Оплавляются свечи… (02:00)
11. Приговорённые к жизни (02:19)
12. Песня Вани у Марии (02:34)
13. Баллада о борьбе (02:51)

лог создания рипа

Код:
Exact Audio Copy V1.0 beta 1 from 15. November 2010
Отчёт EAC об извлечении, выполненном 26. января 2012, 20:06
Владимир Высоцкий / Вот и сбывается всё, что пророчится...
Дисковод: Optiarc DVD RW AD-7260S   Adapter: 1  ID: 0
Режим чтения                 : Достоверность
Использование точного потока : Да
Отключение кэша аудио        : Да
Использование указателей C2  : Нет
Коррекция смещения при чтении                     : 48
Способность читать области Lead-in и Lead-out     : Нет
Заполнение пропущенных сэмплов тишиной            : Да
Удаление блоков с тишиной в начале и конце        : Нет
При вычислениях CRC использовались нулевые сэмплы : Да
Интерфейс                                         : Встроенный Win32-интерфейс для Win NT/2000
Выходной формат : Внутренние WAV-операции
Формат сэмплов  : 44.100 Гц; 16 бит; стерео
TOC извлечённого CD
     Трек |   Старт  | Длительность | Начальный сектор | Конечный сектор
    ---------------------------------------------------------------------
       1  |  0:00.00 |    2:23.35   |           0      |      10759
       2  |  2:23.35 |    1:32.29   |       10760      |      17688
       3  |  3:55.64 |    1:40.46   |       17689      |      25234
       4  |  5:36.35 |    1:46.50   |       25235      |      33234
       5  |  7:23.10 |    3:08.10   |       33235      |      47344
       6  | 10:31.20 |    1:37.20   |       47345      |      54639
       7  | 12:08.40 |    6:10.71   |       54640      |      82460
       8  | 18:19.36 |    3:14.00   |       82461      |      97010
       9  | 21:33.36 |    5:41.46   |       97011      |     122631
      10  | 27:15.07 |    2:00.28   |      122632      |     131659
      11  | 29:15.35 |    2:19.68   |      131660      |     142152
      12  | 31:35.28 |    2:34.14   |      142153      |     153716
      13  | 34:09.42 |    2:51.29   |      153717      |     166570
Характеристики диапазона извлечения и сообщения об ошибках
Выбранный диапазон
     Имя файла C:\Users\Анатолий\Desktop\Музыка\В.Высоцкий-Вот и сбывается всё\Владимир Высоцкий - Вот и сбывается всё, что пророчится....wav
     Пиковый уровень 99.8 %
0.2 X
     Качество диапазона 100.0 %
     CRC теста 7CBE3D63
     CRC копии 7CBE3D63
     Копирование... OK
Ошибок не произошло
AccurateRip: сводка
Трек  1  нет в базе данных
Трек  2  нет в базе данных
Трек  3  нет в базе данных
Трек  4  нет в базе данных
Трек  5  нет в базе данных
Трек  6  нет в базе данных
Трек  7  нет в базе данных
Трек  8  нет в базе данных
Трек  9  нет в базе данных
Трек 10  нет в базе данных
Трек 11  нет в базе данных
Трек 12  нет в базе данных
Трек 13  нет в базе данных
Ни одного трека нет в базе AccurateRip
Конец отчёта

содержание индексной карты *cue

Код:
REM GENRE "Авторская песня"
REM DATE 2012
REM DISCID A308AC0D
REM COMMENT "ExactAudioCopy v1.0b1"
PERFORMER "Владимир Высоцкий"
TITLE "Вот и сбывается всё, что пророчится"
FILE "Владимир Высоцкий - Вот и сбывается всё, что пророчится.wav" WAVE
  TRACK 01 AUDIO
    TITLE "Песня Бродского"
    PERFORMER "Владимир Высоцкий"
    FLAGS DCP
    INDEX 01 00:00:00
  TRACK 02 AUDIO
    TITLE "Песня бандитов"
    PERFORMER "Владимир Высоцкий"
    FLAGS DCP
    INDEX 00 02:21:35
    INDEX 01 02:23:35
  TRACK 03 AUDIO
    TITLE "Песня Рябого"
    PERFORMER "Владимир Высоцкий"
    FLAGS DCP
    INDEX 00 03:53:64
    INDEX 01 03:55:64
  TRACK 04 AUDIO
    TITLE "Куплеты Бенгальского"
    PERFORMER "Владимир Высоцкий"
    FLAGS DCP
    INDEX 00 05:34:35
    INDEX 01 05:36:35
    INDEX 02 07:18:24
  TRACK 05 AUDIO
    TITLE "Романс"
    PERFORMER "Владимир Высоцкий"
    FLAGS DCP
    INDEX 00 07:21:10
    INDEX 01 07:23:10
  TRACK 06 AUDIO
    TITLE "Цыганская песня"
    PERFORMER "Владимир Высоцкий"
    FLAGS DCP
    INDEX 00 10:29:20
    INDEX 01 10:31:20
  TRACK 07 AUDIO
    TITLE "Баллада о манекенах"
    PERFORMER "Владимир Высоцкий"
    FLAGS DCP
    INDEX 00 12:06:40
    INDEX 01 12:08:40
  TRACK 08 AUDIO
    TITLE "Баллада об уходе в рай"
    PERFORMER "Владимир Высоцкий"
    FLAGS DCP
    INDEX 00 18:17:36
    INDEX 01 18:19:36
  TRACK 09 AUDIO
    TITLE "Скоморохи на ярмарке"
    PERFORMER "Владимир Высоцкий"
    FLAGS DCP
    INDEX 00 21:31:36
    INDEX 01 21:33:36
  TRACK 10 AUDIO
    TITLE "Оплавляются свечи…"
    PERFORMER "Владимир Высоцкий"
    FLAGS DCP
    INDEX 00 27:13:07
    INDEX 01 27:15:07
  TRACK 11 AUDIO
    TITLE "Приговорённые к жизни"
    PERFORMER "Владимир Высоцкий"
    FLAGS DCP
    INDEX 00 29:13:35
    INDEX 01 29:15:35
  TRACK 12 AUDIO
    TITLE "Песня Вани у Марии"
    PERFORMER "Владимир Высоцкий"
    FLAGS DCP
    INDEX 00 31:33:28
    INDEX 01 31:35:28
  TRACK 13 AUDIO
    TITLE "Баллада о борьбе"
    PERFORMER "Владимир Высоцкий"
    FLAGS DCP
    INDEX 00 34:07:42
    INDEX 01 34:09:42
    INDEX 02 34:10:57
    INDEX 03 36:58:04
    INDEX 04 36:59:71
- -

_________________
У нас все платно: родиться, учиться, жениться, лечиться, умереть.
Бесплатно разрешено только работать.
Other forum [Profile] [PM]
Display posts from previous:    
Reply to topic

The time now is: Today 17:22

All times are GMT + 3 Hours



You cannot post new topics in this forum
You cannot reply to topics in this forum
You cannot edit your posts in this forum
You cannot delete your posts in this forum
You cannot vote in polls in this forum
You cannot attach files in this forum
You cannot download files in this forum