Today is a free download without charge Download

Забытые киноленты / Forgotten Silver (Коста Боутс / Costa Botes, Питер Джексон / Peter Jackson) [1995, США, псевдодокументальный, комедия, BDRip 1080p] VO (Филонов) + Sub Rus + Original Eng

Reply to topic
 
Author
Message

Omen ®

Longevity: 8 years 5 months

Posts: 181087

Торрент-статистика

Post 07-Feb-2013 17:12

[Quote]

Забытые киноленты / Forgotten Silver
Страна: США
Жанр: псевдодокументальный, комедия
Год выпуска: 1995
Продолжительность: 0:54:47
Перевод: Одноголосый закадровый Филонов
Cубтитры: русские
Оригинальная аудиодорожка: английская
Режиссер: Коста Боутс / Costa Botes, Питер Джексон / Peter Jackson
В ролях: Джеффри Томас, Коста Боутс, Маргарит Херст, Питер Джексон, Леонард Малтин, Джонни Моррис, Сэм Нил, Джон О’Ши, Линдсэй Шелтон, Харви Вайнштейн
Описание: История несправедливо забытого гения начала ХХ века Колина Маккензи, который был изобретателем звукового и цветного кино, монтажа, крупного плана, а также подвижной камеры на кране и телеге.

Сэмпл: http://yadi.sk/d/HKSKdxhz2OcDb
Тип релиза: BDRip 1080p
Контейнер: MKV
Видео: х264 ~14200 kbps 1920х1080 / 23.976 fps / 16:9 / High Profile 4.1
Аудио: Russian MP3 2.0 44.1 kHz 192 kbps
Аудио 2: English DTS 2.0 1510 kbps 48kHz

MediaInfo

General
Unique ID : 247353621603019701620746526841913481950 (0xBA16931D8F2BA7F39A88EBB1C8DC1ADE)
Complete name : D:\Кино HD\Forgotten.Silver.1995.1080p.mkv
Format : Matroska
Format version : Version 2
File size : 6.07 GiB
Duration : 54mn 49s
Overall bit rate : 15.9 Mbps
Encoded date : UTC 2013-01-31 13:29:51
Writing application : mkvmerge v5.6.0 ('Kenya Kane') built on May 27 2012 16:44:04
Writing library : libebml v1.2.3 + libmatroska v1.3.0
Video
ID : 1
Format : AVC
Format/Info : Advanced Video Codec
Format profile : [email protected]
Format settings, CABAC : Yes
Format settings, ReFrames : 4 frames
Codec ID : V_MPEG4/ISO/AVC
Duration : 54mn 49s
Bit rate : 14.2 Mbps
Width : 1 920 pixels
Height : 1 080 pixels
Display aspect ratio : 16:9
Frame rate mode : Constant
Frame rate : 23.976 fps
Color space : YUV
Chroma subsampling : 4:2:0
Bit depth : 8 bits
Scan type : Progressive
Bits/(Pixel*Frame) : 0.285
Stream size : 5.30 GiB (87%)
Title : Forgotten.Silver.1995.Blu-ray.1080p.x264.DTS
Writing library : x264 core 129 r2245 bc13772
Encoding settings : cabac=1 / ref=4 / deblock=1:-2:-2 / analyse=0x3:0x113 / me=umh / subme=10 / psy=1 / psy_rd=1.20:0.20 / mixed_ref=1 / me_range=32 / chroma_me=1 / trellis=2 / 8x8dct=1 / cqm=0 / deadzone=21,11 / fast_pskip=0 / chroma_qp_offset=-3 / threads=12 / lookahead_threads=2 / sliced_threads=0 / nr=0 / decimate=0 / interlaced=0 / bluray_compat=0 / constrained_intra=0 / bframes=5 / b_pyramid=2 / b_adapt=2 / b_bias=0 / direct=3 / weightb=1 / open_gop=0 / weightp=2 / keyint=240 / keyint_min=1 / scenecut=40 / intra_refresh=0 / rc_lookahead=60 / rc=2pass / mbtree=0 / bitrate=14176 / ratetol=1.0 / qcomp=0.60 / qpmin=10 / qpmax=51 / qpstep=4 / cplxblur=20.0 / qblur=0.5 / vbv_maxrate=38000 / vbv_bufsize=38000 / nal_hrd=none / ip_ratio=1.40 / pb_ratio=1.30 / aq=1:1.00
Language : English
Default : Yes
Forced : No
Audio #1
ID : 2
Format : DTS
Format/Info : Digital Theater Systems
Mode : 16
Format settings, Endianness : Big
Codec ID : A_DTS
Duration : 54mn 49s
Bit rate mode : Constant
Bit rate : 1 509 Kbps
Channel(s) : 2 channels
Channel positions : Front: L R
Sampling rate : 48.0 KHz
Bit depth : 16 bits
Compression mode : Lossy
Stream size : 592 MiB (10%)
Language : English
Default : No
Forced : No
Audio #2
ID : 3
Format : MPEG Audio
Format version : Version 1
Format profile : Layer 3
Mode : Joint stereo
Codec ID : A_MPEG/L3
Codec ID/Hint : MP3
Duration : 54mn 49s
Bit rate mode : Constant
Bit rate : 192 Kbps
Channel(s) : 2 channels
Sampling rate : 44.1 KHz
Compression mode : Lossy
Stream size : 75.3 MiB (1%)
Language : Russian
Default : Yes
Forced : No
Text
ID : 4
Format : UTF-8
Codec ID : S_TEXT/UTF8
Codec ID/Info : UTF-8 Plain Text
Language : Russian
Default : No
Forced : No

Скриншоты

Other forum [Profile] [PM]
Similar theme
Forum Topic Author Torrent Replies Last Post
./templates/default/images/folder_dl.gif Отечественные cериалы Колодец забытых желаний / Серии: 1-4 из 4 (Петр Амелин) [2016, детектив,экранизация, SATRip] Omen
1 | 0

0 | 2858

12

2016-12-25 01:00
Omen Latest
Display posts from previous:    
Reply to topic

The time now is: Today 23:07

All times are GMT + 3 Hours



You cannot post new topics in this forum
You cannot reply to topics in this forum
You cannot edit your posts in this forum
You cannot delete your posts in this forum
You cannot vote in polls in this forum
You cannot attach files in this forum
You cannot download files in this forum