Today is a free download without charge Download

Грач (Посредник) / Серии: 1-2 из 12 (Андрей Волгин, Максим Кондратенко) [2012, Детектив, мистика, HDTVRip 720p]

Reply to topic
 
Author
Message

Omen ®

Longevity: 9 years 1 month

Posts: 181086

Торрент-статистика

Post 07-Feb-2013 13:08

[Quote]

Грач (Посредник)
Год выпуска: 2012
Производство: United Multimedia Projects
Жанр: Детектив, мистика
Продолжительность: ~00:50:00
Режиссёр: Андрей Волгин, Максим Кондратенко
В ролях: Павел Трубинер (Грач), Светлана Иванова (Даша), Игорь Старосельцев (Волков), Алексей Лонгин (Кириллов), Юлия Мельникова (Светлана Грачева), Иулиана Куликова (Оля Грачева), Елена Гольянова (Тамара), Светлана Антропова (Ада Тумайкина), Галина Сазонова (мать Светланы), Сергей Греков (отец Светланы), Евгений Крылов (Усольцев), Иван Охлобыстин (доктор) и другие.
Описание: Майор МВД Сергей Грачев по прозвищу Грач во время операции по освобождению заложников получает ранение в голову. Врачам не удается извлечь пулю. Но Грачев, пережив клиническую смерь, чудом выживает. Ранение полностью меняет его жизнь. Теперь она полна призраками убитых людей, виновники гибели которых так и не найдены. Отвечая на молчаливые просьбы умерших и используя их подсказки, Грач начинает расследовать дела, которые в свое время определили как безнадежные …

Качество: HDTVRip 720p
Формат: MKV
Видео кодек: H.264
Аудио кодек: MPEG Audio
Видео: x264, 1280 х 720 (16:9), 25,000 кадр/сек, ~ 5263 Кбит/сек
Аудио: MPEG Audio 48000Hz stereo 192 Кбит/сек
Сторонней рекламы нет!

MediaInfo

ОбщееУникальный идентификатор : 190614075804491190400949470638768727297 (0x8F66EF863124463CBE918A9DE6792501)Полное имя : E:\Downloads\55\Грач (Посредник) HDTVRip 720p\Грач (Посредник) 01_серия_HDTVRip_720p_by_Серый1779.mkvФормат : MatroskaРазмер файла : 1,90 ГбайтПродолжительность : 49 м.Общий поток : 5457 Кбит/секДата кодирования : UTC 2013-02-05 19:35:09Программа кодирования : mkvmerge v4.9.1 ('Ich will') built on Sep 21 2011 17:48:11Библиотека кодирования : libebml v1.2.1 + libmatroska v1.2.0
ВидеоИдентификатор : 1Формат : AVCФормат/Информация : Advanced Video CodecПрофиль формата : [email protected]Параметр CABAC формата : ДаПараметр ReFrames формата : 9 кадровИдентификатор кодека : V_MPEG4/ISO/AVCПродолжительность : 49 м.Битрейт : 5157 Кбит/секШирина : 1280 пикс.Высота : 720 пикс.Соотношение сторон : 16:9Частота кадров : 25,000 кадр/секЦветовое пространство : YUVПодвыборка цветности : 4:2:0Битовая глубина : 8 битТип развёртки : ПрогрессивнаяБит/(Пиксели*Кадры) : 0.224Размер потока : 1,80 Гбайт (94%)Библиотека кодирования : x264 core 118 r2085 8a62835Настройки программы : cabac=1 / ref=9 / deblock=1:-2:-2 / analyse=0x3:0x133 / me=umh / subme=9 / psy=1 / psy_rd=1.00:0.15 / mixed_ref=1 / me_range=32 / chroma_me=1 / trellis=2 / 8x8dct=1 / cqm=0 / deadzone=21,11 / fast_pskip=0 / chroma_qp_offset=-3 / threads=6 / sliced_threads=0 / nr=0 / decimate=1 / interlaced=0 / bluray_compat=0 / constrained_intra=0 / bframes=9 / b_pyramid=2 / b_adapt=2 / b_bias=0 / direct=1 / weightb=1 / open_gop=0 / weightp=2 / keyint=250 / keyint_min=25 / scenecut=40 / intra_refresh=0 / rc_lookahead=50 / rc=crf / mbtree=1 / crf=20.0 / qcomp=0.60 / qpmin=0 / qpmax=69 / qpstep=4 / ip_ratio=1.40 / aq=2:0.80Основные цвета : BT.470-6 System B, BT.470-6 System G, BT.601-6 625, BT.1358 625, BT.1700 625 PAL, BT.1700 625 SECAMХарактеристики трансфера : BT.470-6 System B, BT.470-6 System GКоэффициенты матрицы : BT.709-5, BT.1361, IEC 61966-2-4 709, SMPTE RP177
АудиоИдентификатор : 2Формат : MPEG AudioВерсия формата : Version 1Профиль формата : Layer 2Идентификатор кодека : A_MPEG/L2Идентификатор кодека/Подсказка : MP2Продолжительность : 49 м.Вид битрейта : ПостоянныйБитрейт : 192 Кбит/секКаналы : 2 каналаЧастота : 48,0 КГцМетод сжатия : С потерямиРазмер потока : 68,6 Мбайт (4%)

h264 log

x264 [info]: frame I:592 Avg QP:18.29 size:162932x264 [info]: frame P:17359 Avg QP:21.22 size: 53234x264 [info]: frame B:56961 Avg QP:24.05 size: 16693x264 [info]: consecutive B-frames: 1.5% 2.1% 3.8% 53.1% 12.8% 22.8% 2.3% 1.5% 0.1% 0.0%x264 [info]: mb I I16..4: 21.3% 57.0% 21.8%x264 [info]: mb P I16..4: 4.4% 10.0% 1.4% P16..4: 49.7% 21.1% 6.1% 1.2% 0.4% skip: 5.8%x264 [info]: mb B I16..4: 0.2% 1.0% 0.2% B16..8: 39.2% 6.9% 2.0% direct:10.0% skip:40.5% L0:40.2% L1:47.7% BI:12.1%x264 [info]: 8x8 transform intra:63.8% inter:58.3%x264 [info]: coded y,uvDC,uvAC intra: 73.3% 77.0% 39.4% inter: 29.7% 27.4% 2.4%x264 [info]: i16 v,h,dc,p: 48% 19% 8% 24%x264 [info]: i8 v,h,dc,ddl,ddr,vr,hd,vl,hu: 10% 9% 7% 10% 14% 13% 13% 11% 12%x264 [info]: i4 v,h,dc,ddl,ddr,vr,hd,vl,hu: 14% 14% 6% 8% 12% 13% 11% 11% 12%x264 [info]: i8c dc,h,v,p: 36% 29% 20% 15%x264 [info]: Weighted P-Frames: Y:3.0% UV:1.6%x264 [info]: ref P L0: 41.8% 11.5% 21.3% 6.2% 6.4% 3.9% 4.1% 2.0% 2.5% 0.1% 0.0%x264 [info]: ref B L0: 87.1% 7.1% 2.4% 1.2% 0.8% 0.7% 0.4% 0.2%x264 [info]: ref B L1: 96.9% 3.1%x264 [info]: kb/s:5263.24
x264 [total]: encoded 74912 frames, 2.12 fps, 5263.24 kb/s
Отдельное спасибо mydimka за предоставление исходника.

Внимание ! Раздача ведётся путём добавления новых серий

Внимание! Раздача ведётся путём добавления новых серий; при каждом добавлении создётся новый торрент. Чтобы начать докачку новой серии, пользователям необходимо сделать следующее:
(1) остановить скачивание,
(2) удалить старый торрент у себя из клиента (старые серии удалять не надо),
(3) скачать новый торрент и запустить его у себя в клиенте вместо старого, при этом указать клиенту путь в старую папку куда и должно происходить скачивание новых серий.
Ваш клиент при этом должен произвести хеширование (проверку) старой папки (если не производит сам - помогите ему сделать это), и будет докачивать только те серии которых у вас ещё нет. Старые серии при этом не удаляются, а продолжают раздаваться!
Eсли вы уже удалили старые серии, то предотвратить повторную закачку старых серий можно, отжав галочку в соответсвующих местах при запуске нового торрента. По возможности, желательно не удалять старые серии как можно дольше чтобы релизёр не столько продолжал раздавать старые серии, а смог сконцентрироваться на новых.
ВНИМАНИЕ! ТОРРЕНТ ПЕРЕЗАЛИТ! ДОБАВЛЕНА 2-ая СЕРИИ!

Скриншоты

Other forum [Profile] [PM]
Display posts from previous:    
Reply to topic

The time now is: Today 22:43

All times are GMT + 3 Hours



You cannot post new topics in this forum
You cannot reply to topics in this forum
You cannot edit your posts in this forum
You cannot delete your posts in this forum
You cannot vote in polls in this forum
You cannot attach files in this forum
You cannot download files in this forum