Today is a free download without charge Download

Морские дьяволы. Смерч / Серии: 1-4 из 32 (Алексей Гусев, Сергей Васильев, Станислав Дремов) [2012, приключения, SATRip]

Reply to topic
 
Author
Message

Omen ®

Longevity: 9 years 1 month

Posts: 181086

Торрент-статистика

Post 07-Feb-2013 13:08

[Quote]

Морские дьяволы. Смерч
Год выпуска: 2012
Производство: Телекомпания НТВ, "Гамма-продакшн"
Жанр: приключения
Продолжительность: 00:45:00
Субтитры: Нет--Режиссёр: Алексей Гусев, Сергей Васильев, Станислав Дремов--В ролях: Олег Чернов, Дарья Юргенс, Антон Гуляев, Владимир Ярош, Дарья Циберкина, Игорь Григорьев, Михаил Елисеев, Анна Пескова, Антон Пулит, Анатолий Журавлёв, Юрий Кузнецов, Константин Воробьёв, Виталий Кравченко, Руслан Лукьянов, Артур Федынко, Дмитрий Быковский-Ромашов, Михаил Сидаш, Сергей Шкарбан, Алексей Ревякин, Юрий Батурин, Дмитрий Лебедев, Оксана Скакун, Алексей Величко, Руслан Кацагаджиев, Олег Панин, Дмитрий Кочкин, Арсений Бойко, Алексей Симонов, Сергей Маркеев, Олег Малышев, Павел Миронов, Олег Морозов, Константин Клюквин, Юрий Елагин, Александр Петров--Описание: Для возвращения ценностей и денег, казалось бы безвозвратно утерянных страной, создается мобильная группа «Смерч». Среди их предполагаемых дел – поиски Янтарной комнаты, золота Романовых, золота партии и пр. Решая эти задачи, «Смерч» одновременно отсекает и вывоз из страны или попадание в руки нечистых на руку коллекционеров национальных ценностей, незафиксированных в госперечне, но успешно найденных группами самодеятельных искателей. Тем самым, решая дела государственной важности, «Смерч» работает и на поднятие престижа страны. «Объекты» работы группы, что называется, три стихии – вода, небо и земля (включая горы).
Эта группа не сильно скована законами, главное – моральные принципы при подчинению высшему командованию. «Смерч», обладающей всеми новинками вооружений и спецтехники, включает в себя бойцов спецподразделений, ученых, программистов, психологов. Все сотрудники МВД, ФСБ и Министерства Обороны обязаны подчиняться указаниям этой группы.-
-
Сэмпл: http://multi-up.com/826920
Качество: SATRip
Формат: AVI
Видео кодек: DivX
Аудио кодек: MP3
Видео: MPEG4, DivX 5, 704x400 (16/9), 25.000 fps, 1 499 Kbps (0.213 bit/pixel)
Аудио: MP3, 48.0 KHz, 2 ch, 128 Kbps, CBR

Реклама есть .

MI

General
Complete name : I:\ЗАКАЧКИ\Морские Дьяволы. Смерч\Морские Дьяволы. Смерч_01.avi
Format : AVI
Format/Info : Audio Video Interleave
File size : 533 MiB
Duration : 45mn 24s
Overall bit rate : 1 640 Kbps
Writing library : Boilsoft AVI tool build 1/release
Video
ID : 0
Format : MPEG-4 Visual
Format profile : [email protected]
Format settings, BVOP : No
Format settings, QPel : No
Format settings, GMC : No warppoints
Format settings, Matrix : Default (H.263)
Codec ID : DX50
Codec ID/Hint : DivX 5
Duration : 45mn 24s
Bit rate : 1 499 Kbps
Width : 704 pixels
Height : 400 pixels
Display aspect ratio : 16:9
Frame rate : 25.000 fps
Color space : YUV
Chroma subsampling : 4:2:0
Bit depth : 8 bits
Scan type : Progressive
Compression mode : Lossy
Bits/(Pixel*Frame) : 0.213
Stream size : 487 MiB (91%)
Writing library : XviD 1.2.1 (UTC 2008-12-04)
Audio
ID : 1
Format : MPEG Audio
Format version : Version 1
Format profile : Layer 3
Mode : Joint stereo
Mode extension : MS Stereo
Codec ID : 55
Codec ID/Hint : MP3
Duration : 45mn 24s
Bit rate mode : Constant
Bit rate : 128 Kbps
Channel(s) : 2 channels
Sampling rate : 48.0 KHz
Compression mode : Lossy
Stream size : 41.6 MiB (8%)
Alignment : Aligned on interleaves
Interleave, duration : 24 ms (0.60 video frame)
Interleave, preload duration : 504 ms
Writing library : LAME3.98.2

Скриншоты



Раздача ведётся путём добавления новых серий

Раздача ведётся путём добавления новых серий; при каждом добавлении создаётся новый торрент. Чтобы начать докачку новой серии, пользователям необходимо сделать следующее:
(1) остановить скачивание,
(2) удалить старый торрент у себя из клиента (старые серии удалять не надо),
(3) скачать новый торрент и запустить его у себя в клиенте вместо старого, при этом указать клиенту путь в старую папку куда и должно происходить скачивание новых серий.
Ваш клиент при этом должен произвести хеширование (проверку) старой папки (если не производит сам - помогите ему сделать это), и будет докачивать только те серии которых у вас ещё нет. Старые серии при этом не удаляются, а продолжают раздаваться!
Eсли вы уже удалили старые серии, то предотвратить повторную закачку старых серий можно, отжав галочку в соответствующих местах при запуске нового торрента. По возможности, желательно не удалять старые серии как можно дольше чтобы релизёр не столько продолжал раздавать старые серии, а смог сконцентрироваться на новых.
Other forum [Profile] [PM]

christof

Longevity: 8 years 10 months

Posts: 2

Торрент-статистика

Post 08-Feb-2013 15:14 (after 1 day 2 hours)

[Quote]

Посмотрим, что они тут наснимали в продолжении Дьяволов) Судя по полномочиям и согласно названию СМЕРЧ - оно как то перекликается со СМЕРШ. Не находите?)

_________________
В молчании - слово, А свет -лишь во тьме. И жизнь после смерти
проносится быстро, Как ястреб, что мчится по сини небесной, пустынной, бескрайней...
Diplomacy of Good within the Shadows game
Other forum [Profile] [PM]

Omen ®

Longevity: 9 years 1 month

Posts: 181086

Торрент-статистика

Post 08-Feb-2013 15:41 (after 26 minutes)

[Quote]

christof,
Посмотрим что выйдет в итоге. По первым сериям еще рано судить)))
Other forum [Profile] [PM]

christof

Longevity: 8 years 10 months

Posts: 2

Торрент-статистика

Post 08-Feb-2013 22:41 (after 6 hours)

[Quote]

Посмотрел) Ужас. Если Россию и ее безопасность на ролях профи высшего полета охраняют такие сентиментальные, не ученные тугодумы - то я переживаю за ее безопасность)

_________________
В молчании - слово, А свет -лишь во тьме. И жизнь после смерти
проносится быстро, Как ястреб, что мчится по сини небесной, пустынной, бескрайней...
Diplomacy of Good within the Shadows game
Other forum [Profile] [PM]
Display posts from previous:    
Reply to topic

The time now is: Today 06:08

All times are GMT + 3 Hours



You cannot post new topics in this forum
You cannot reply to topics in this forum
You cannot edit your posts in this forum
You cannot delete your posts in this forum
You cannot vote in polls in this forum
You cannot attach files in this forum
You cannot download files in this forum