Сегодня идет свободное скачивание без начисления Download

Тайна пещеры Каниюта (Хабиб (Хабибулло) Файзиев) [1967 г., Приключения, SATRip]

Ответить на тему
 
Автор
Сообщение

Omen ®

Стаж: 6 лет

Сообщений: 184329

Торрент-статистика

Пост 07-Фев-2013 00:00

[Цитировать]

-Тайна пещеры Каниюта (1967) SATRip- Русское название: Тайна пещеры Каниюта
Год выпуска: 1967
Жанр: Приключения
Описание фильма:
Много столетий назад Царица Гульмалик и ее народ отбивали жестокие набеги монголов. Кончился металл для наконечников стрел, и в дело пошло золото, несметное количество которого покоила пещера Каниюта. В наше время, в 30-е годы, во время раскопок в пещере Каниюта гибнет геолог Соколова. Её убил Джавхарий, в прошлом местный бай, который не хотел , чтобы Соколова разгадала тайну пещеры и нашла золото. Позднее геолог Бородина организует новую экспедицию в пещеру Каниюта, в которую снова попадет Джавхарий, уже сильно постаревший, но все еще ненавидящий Советскую власть. О том, что нашли члены экспедиции в пещере, какие опасные приключения пришлось им испытать в борьбе с матерым врагом Джавхарием, и рассказывает фильм.
Режиссер: Хабиб (Хабибулло) Файзиев
Актеры: Закир Мухамеджанов,Алим Ходжаев,Тамара Кокова,Татьяна Пилецкая,Бахтияр Касимов,Антонина Рустамова,Лола Абдукаримова-Неустроева,Артык Джаллыев,Хикмат Латыпов,Фархад Муратходжаев,Елена Ратникова
Продолжительность: 01:13:31

Видеокодек: Xvid
Битрейт видео: ~1850 kb/s
Размер кадра: 688x320
Качество видео: SATRip
Аудиокодек: MP3, 2 канала
Битрейт аудио: 128 kb/s

Media Info

Общее
Полное имя : D:\Папка\Видео\Тайна пещеры Каниюта\Тайна пещеры Каниюта.avi
Формат : AVI
Формат/Информация : Audio Video Interleave
Размер файла : 1,02 Гбайт
Продолжительность : 1 ч. 13 м.
Общий поток : 1988 Кбит/сек
Режиссёр : SATrip by Animat (fenixclub.com)
Программа кодирования : VirtualDubMod 1.5.10.2 (build 2540/release)
Библиотека кодирования : VirtualDubMod build 2540/release
Видео
Идентификатор : 0
Формат : MPEG-4 Visual
Профиль формата : Advanced [email protected]
Параметр BVOP формата : 2
Параметр QPel формата : Нет
Параметр GMC формата : Без точки перехода
Параметр матрицы формата : Default (MPEG)
Режим смешивания : Сжатый битовый поток
Идентификатор кодека : XVID
Идентификатор кодека/Подсказка : XviD
Продолжительность : 1 ч. 13 м.
Битрейт : 1850 Кбит/сек
Ширина : 688 пикселей
Высота : 320 пикселей
Соотношение сторон : 2,2:1
Частота кадров : 25,000 кадров/сек
Цветовое пространство : YUV
Субдискретизация насыщенности : 4:2:0
Битовая глубина : 8 бит
Тип развёртки : Прогрессивная
Метод сжатия : С потерями
Бит/(Пиксели*Кадры) : 0.336
Размер потока : 973 Мбайт (93%)
Библиотека кодирования : XviD 1.1.2 (UTC 2006-11-01)
Аудио
Идентификатор : 1
Формат : MPEG Audio
Версия формата : Version 1
Профиль формата : Layer 3
Режим : Joint stereo
Расширение режима : MS Stereo
Идентификатор кодека : 55
Идентификатор кодека/Подсказка : MP3
Продолжительность : 1 ч. 13 м.
Вид битрейта : Постоянный
Битрейт : 128 Кбит/сек
Каналы : 2 канала
Частота : 48,0 КГц
Метод сжатия : С потерями
Размер потока : 67,3 Мбайт (6%)
Выравнивание : Соединение по промежуткам
Продолжительность промежутка : 40 мс. (1,00 видеокадр)
Время предзагрузки промежутка : 504 мс.
Скриншоты:        
       
Вне форума [Профиль] [ЛС]
Похожие темы
Форум Тема Автор Торрент Отв. Посл. сообщение
./templates/default/images/folder_dl.gif Приключения и квесты Mystery Trackers: Blackrow\'s Secret Collector\'s Edition / Охотники за тайнами. Загадка рода Блэкроу. Коллекционное издание [P] [RUS / ENG] (2014) Omen
7 | 0

0 | 1466

23

2015-06-06 00:09
Omen Последнее
./templates/default/images/folder_dl.gif Приключения и квесты Mystery Trackers 12: Queen of Hearts Collector\'s Edition / Охотники за тайнами 12: Червонная Дама Коллекционное издание [P] [RUS / ENG] (2016) Omen
1 | 0

0 | 3380

8

2017-01-16 01:00
Omen Последнее
./templates/default/images/folder_dl.gif T Новинки (BD|HDTV|DVD) Тайна 7 сестер / Seven Sisters (Томми Виркола) [2017, фантастика, триллер, WEB-DL 720p] L Theseus
1 | 0

1 | 1177

6

2017-08-19 21:24
Dracula Последнее
./templates/default/images/folder_dl.gif T Новинки (BD|HDTV|DVD) Тайна 7 сестер / Seven Sisters (Томми Виркола) [2017, фантастика, триллер, WEB-DL 1080p] L Theseus
1 | 0

1 | 4574

9

2017-08-19 21:24
Dracula Последнее
./templates/default/images/folder_dl.gif Новинки (HD|DVD|BD|WEB|TV|SAT|PDTV|-Rip) Тайна 7 сестер / Seven Sisters (Томми Виркола) [2017 г., Фантастика, триллер, BDRip-AVC] DUB | iTunes Theseus
1 | 0

0 | 521

18

2017-12-30 22:20
Theseus Последнее
Показать сообщения:    
Ответить на тему

Текущее время: Сегодня 19:46

Часовой пояс: GMT + 3



Вы не можете начинать темы
Вы не можете отвечать на сообщения
Вы не можете редактировать свои сообщения
Вы не можете удалять свои сообщения
Вы не можете голосовать в опросах
Вы не можете прикреплять файлы к сообщениям
Вы не можете скачивать файлы