Сегодня идет свободное скачивание без начисления Download

Григорий Сковорода (1959) SATRip

Ответить на тему
 
Автор
Сообщение

Omen ®

Стаж: 6 лет 1 месяц

Сообщений: 184308

Торрент-статистика

Пост 07-Фев-2013 00:00

[Цитировать]

-Григорий Сковорода (1959) SATRip- Русское название: Григорий Сковорода
Производство: Киностудия им.А.Довженко
Год выпуска: 1959
Жанр: Драма
Описание фильма:
О жизни Григория Сковороды (1722 - 1794),выдающегося украинского философа, поэта, гуманиста, демократа и просветителя.
Режиссер: Иван Кавалеридзе
Актеры: Александр Гай,Николай Козленко,Таисия Литвиненко,Юрий Сарычев,Юрий Лавров, Георгий Бабенко,Всеволод Быковец, Борис Карлаш-Вербицкий,Яков Козлов, Ян Козлов, Анатолий Моторный,Анна Николаева, Николай Пишванов, Иван Ужвий,Витольд Янпавлис
Продолжительность: 01:28:34

Видеокодек: Xvid
Битрейт видео: ~1799 Кбит/сек
Размер кадра: 672x512
Качество видео: SATRip
Аудиокодек: MP3, 2 сh
Битрейт аудио: 128 Кбит/сек

MediaInfo:

Общее
Полное имя : G:\!V\2013\Григорий Сковорода\Григорий Сковорода SATRip 1959.avi
Формат : AVI
Формат/Информация : Audio Video Interleave
Размер файла : 1,20 Гбайт
Продолжительность : 1 ч. 28 м.
Общий поток : 1936 Кбит/сек
Режиссёр : SATrip by Animat (/*spam*/)
Программа кодирования : VirtualDubMod 1.5.10.2 (build 2540/release)
Библиотека кодирования : Boilsoft AVI tool build 30012/release
Видео
Идентификатор : 0
Формат : MPEG-4 Visual
Профиль формата : Advanced [email protected]
Параметр BVOP формата : 2
Параметр QPel формата : Нет
Параметр GMC формата : Без точки перехода
Параметр матрицы формата : Default (MPEG)
Режим смешивания : Сжатый битовый поток
Идентификатор кодека : XVID
Идентификатор кодека/Подсказка : XviD
Продолжительность : 1 ч. 28 м.
Битрейт : 1799 Кбит/сек
Ширина : 672 пикселя
Высота : 512 пикселей
Соотношение сторон : 4:3
Частота кадров : 25,000 кадров/сек
Цветовое пространство : YUV
Субдискретизация насыщенности : 4:2:0
Битовая глубина : 8 бит
Тип развёртки : Прогрессивная
Метод сжатия : С потерями
Бит/(Пиксели*Кадры) : 0.209
Размер потока : 1,11 Гбайт (93%)
Библиотека кодирования : XviD 1.1.2 (UTC 2006-11-01)
Аудио
Идентификатор : 1
Формат : MPEG Audio
Версия формата : Version 1
Профиль формата : Layer 3
Режим : Joint stereo
Расширение режима : MS Stereo
Идентификатор кодека : 55
Идентификатор кодека/Подсказка : MP3
Продолжительность : 1 ч. 28 м.
Вид битрейта : Постоянный
Битрейт : 128 Кбит/сек
Каналы : 2 канала
Частота : 48,0 КГц
Метод сжатия : С потерями
Размер потока : 80,9 Мбайт (7%)
Выравнивание : Соединение по промежуткам
Продолжительность промежутка : 40 мс. (1,00 видеокадр)
Время предзагрузки промежутка : 504 мс.
Скриншоты:
         
         
Время раздачи: С 10:00 до 23:00
Вне форума [Профиль] [ЛС]
Похожие темы
Форум Тема Автор Торрент Отв. Посл. сообщение
./templates/default/images/folder_dl.gif Приключения, детектив, боевик, триллер Григорий Панченко (сост.) | Английский детектив. Лучшее за 200 лет [сборник] (2017) [FB2] }{@R0N
2 | 0

0 | 7357

7

2017-03-04 21:15
}{@R0N Последнее
Показать сообщения:    
Ответить на тему

Текущее время: Сегодня 16:54

Часовой пояс: GMT + 3



Вы не можете начинать темы
Вы не можете отвечать на сообщения
Вы не можете редактировать свои сообщения
Вы не можете удалять свои сообщения
Вы не можете голосовать в опросах
Вы не можете прикреплять файлы к сообщениям
Вы не можете скачивать файлы