Today is a free download without charge Download

Грач (Посредник) / Серии: 01-02 из 12 (Андрей Волгин, Максим Кондратенко) [2012, Детектив, мистика, DVB]

Reply to topic
 
Author
Message

Omen ®

Longevity: 9 years 1 month

Posts: 181086

Торрент-статистика

Post 05-Feb-2013 17:00

[Quote]

Грач (Посредник)
Год выпуска: 2012
Производство: United Multimedia Projects
Жанр: Детектив, мистика
Продолжительность: ~ 00:50:00
Субтитры: Отсутствуют
Режиссёр: Андрей Волгин, Максим Кондратенко
В ролях: Павел Трубинер (Грач), Светлана Иванова (Даша), Игорь Старосельцев (Волков), Алексей Лонгин (Кириллов), Юлия Мельникова (Светлана Грачева), Иулиана Куликова (Оля Грачева), Елена Гольянова (Тамара), Светлана Антропова (Ада Тумайкина), Галина Сазонова (мать Светланы), Сергей Греков (отец Светланы), Евгений Крылов (Усольцев), Иван Охлобыстин (доктор) и другие.
Описание: Майор МВД Сергей Грачев по прозвищу Грач во время операции по освобождению заложников получает ранение в голову. Врачам не удается извлечь пулю. Но Грачев, пережив клиническую смерь, чудом выживает. Ранение полностью меняет его жизнь. Теперь она полна призраками убитых людей, виновники гибели которых так и не найдены. Отвечая на молчаливые просьбы умерших и используя их подсказки, Грач начинает расследовать дела, которые в свое время определили как безнадежные …
Сэмпл: http://multi-up.com/827180
Доп. информация: Релиз -

Рип чистый. Без посторонних надписей. Выкладывается как есть.
Качество: DVB
Формат: MPG
Видео кодек: MPG2
Аудио кодек: MP2
Видео: 720x576 @ 1024x576 (16:9) 25.00fps 5 810 Kbps, 0.560 bit/pixel
Аудио: MPEG Audio 48000Hz stereo 192 Кбит/сек

Скриншоты


MI

GeneralComplete name : H:\ВЫКЛАДКА\DVB\05 - СЕРИАЛЫ\Грач (Посредник) (2012, Сериал, Детектив, Мистика, DVB) (MYDIMKA)\01 серия.mpgFormat : MPEG-PSFile size : 2.13 GiBDuration : 49mn 56sOverall bit rate mode : VariableOverall bit rate : 6 119 Kbps
VideoID : 224 (0xE0)Format : MPEG VideoFormat version : Version 2Format profile : [email protected] settings, BVOP : YesFormat settings, Matrix : CustomFormat settings, GOP : M=3, N=24Duration : 49mn 56sBit rate mode : VariableBit rate : 5 806 KbpsMaximum bit rate : 15.0 MbpsWidth : 720 pixelsHeight : 576 pixelsDisplay aspect ratio : 16:9Frame rate : 25.000 fpsStandard : PALColor space : YUVChroma subsampling : 4:2:0Bit depth : 8 bitsScan type : InterlacedScan order : Top Field FirstCompression mode : LossyBits/(Pixel*Frame) : 0.560Stream size : 2.03 GiB (95%)
AudioID : 192 (0xC0)Format : MPEG AudioFormat version : Version 1Format profile : Layer 2Duration : 49mn 56sBit rate mode : ConstantBit rate : 192 KbpsChannel(s) : 2 channelsSampling rate : 48.0 KHzCompression mode : LossyDelay relative to video : 1msStream size : 68.6 MiB (3%)

Внимание! Раздача ведётся путём добавления новых выпусков

Внимание! Раздача ведётся путём добавления новых выпусков; при каждом добавлении создётся новый торрент. Чтобы начать докачку нового выпуска, пользователям необходимо сделать следующее:
(1) остановить скачивание,
(2) удалить старый торрент у себя из клиента (старые выпуски удалять не надо),
(3) скачать новый торрент и запустить его у себя в клиенте вместо старого, при этом указать клиенту путь в старую папку куда и должно происходить скачивание новых выпусков.
Ваш клиент при этом должен произвести хеширование (проверку) старой папки (если не производит сам - помогите ему сделать это), и будет докачивать только те выпуски которых у вас ещё нет. Старые выпуски при этом не удаляются, а продолжают раздаваться!
Eсли вы уже удалили старые выпуски, то предотвратить повторную закачку старых выпусков можно, отжав галочку в соответсвующих местах при запуске нового торрента. По возможности, желательно не удалять старые выпуски как можно дольше чтобы релизёр не столько продолжал раздавать старые выпуски, а смог сконцентрироваться на новых.
Other forum [Profile] [PM]
Display posts from previous:    
Reply to topic

The time now is: Today 04:58

All times are GMT + 3 Hours



You cannot post new topics in this forum
You cannot reply to topics in this forum
You cannot edit your posts in this forum
You cannot delete your posts in this forum
You cannot vote in polls in this forum
You cannot attach files in this forum
You cannot download files in this forum